ML
     
  Уважаемый Гость!
Вы можете поддержать проект и зарегистрироваться у наших партнеров - онлайн-стратегия MyLands. При регистрации в игре Вы получите код, который сможете активировать после регистрации на pirat.ca и получить 1000 дублонов.

Ваш код:
0af2e2107bc9b5dd5ac2c09f9fc25e1a77c43887
 
     

Энергия из вакуума. Часть 25 - Мастер-класс по однополюсным двигателям №2 / Energy from the vacuum. Part 25 - Monopole master-class 2. Windpower and alternatives (Энтони Дж. Креддок / Antony J. Craddock) [2011 г., документальный, DVDRip] VO

Ответить на тему
 
Автор
Сообщение

Пост 29-Апр-2012 08:55

[Q] 

memorro7

Штурман

Энергия из вакуума. Часть 25 - Мастер-класс по однополюсным двигателям №2 / Energy from the vacuum. Part 25 - Monopole master-class 2. Windpower and alternatives
Год выпуска: 2011
Производство: США
Жанр: документальный
Продолжительность серии: 01:23:28
Перевод: Профессиональный (одноголосый, закадровый)
Автор(ы) перевода: проект Zaryad
Субтитры: отсутствуют
Режиссер: Энтони Дж. Креддок / Antony J. Craddock
В ролях: Том Бирден, Энтони Креддок
Описание: Впервые в данном видео наглядно показано и рассказано со всеми деталями, безо всяких секретов и заумных теорий, как собрать простейшее реально работающее устройство свободной энергии в домашних условиях из подручных средств. Мастеркласс рассчитан на тупых американцев, поэтому будет понятно даже тем кто не имеет никакой квалификации в электронике.
Остается только поблагодарить Джона за то, что он первый, кто не только показал реально работающую технологию свободной энергии, но и наглядно продемонстрировал всем желающим как собрать простейшее работающее устройство, и самостоятельно убедиться в его работоспособности.
Администрация проекта Заряд.
Я приложил много усилий на то, чтобы заставить людей мыслить неординарно, не по книжкам, а заставить мозги работать, не обращая внимания на устаревшие стереотипы. Как только концепция становится понятной, ее можно воплотить в различных вариантах. Я просто стараюсь показать все возможные, все мыслимые пути получения энергии, потому что я знаю, что многие люди не понимают, что это такое.
Мне хотелось, чтобы люди что то делали своими руками, я знал, что энергия будет становится, все дороже и дороже. И сегодня вы не знаете, что произойдет завтра. Я пытаюсь мотивировать людей творчески подходить к решению задач. Я знаю, что временами бывает тяжело. Но мне бы хотелось, чтобы вы мыслили неординарно, придумывали, что можно сделать из того хлама, который валяется у вас по всему дому.
Джон Бедини.
Доп. информация:
Cмотрите также:
Другие «Релизы проекта Заряд»
Руководство по однополюсным двигателям Бедини (рус.)
Научный сериал «Энергия из вакуума»
д/ф «История магнитного генератора Джона Серла»
д/ф «Потерянные секреты Николы Теслы»
д/ф «Генератор Тесла (Грузинский вариант)»
д/ф «Тяжелый Уотергейт - Война против холодного ядерного синтеза»
д/ф «Кто убил электромобиль»
д/ф «Новая теория атомного ядра - Болотов Борис Васильевич»
д/ф «Начало импульсной энергетики будущего - Канарев Ф.М.»
д/ф «Свободная энергия - Погоня за энергией нулевой точки»
Релиз:
Источник/Качество: DVDRip
Формат: AVI
Видео кодек: H.264
Аудио кодек: MP3
Видео: 852x480 (16:9), 23.976 fps, AVC (х264) [email protected], 520 Kbps, 0.053 bits
Аудио: 48.0 KHz, MPEG Layer 3, 1 ch, ~ 64.0 Kbps
Format : AVI
Format/Info : Audio Video Interleave
File size : 389 MiB
Duration : 1h 31mn
Overall bit rate : 594 Kbps
Writing application : VirtualDubMod 1.5.10.2 (build
2542/release)
Writing library : VirtualDubMod build 2542/release
Video
ID : 0
Format : AVC
Format/Info : Advanced Video Codec
Format profile : [email protected]
Format settings, CABAC : Yes
Format settings, ReFrames : 3 frames
Codec ID : H264
Duration : 1h 31mn
Bit rate : 520 Kbps
Width : 852 pixels
Height : 480 pixels
Display aspect ratio : 16:9
Frame rate : 23.976 fps
Original frame rate : 25.000 fps
Color space : YUV
Chroma subsampling : 4:2:0
Bit depth : 8 bits
Scan type : Progressive
Bits/(Pixel*Frame) : 0.053
Stream size : 341 MiB (88%)
Writing library : x264 core 96 r1613kMod 81e75e9
Encoding settings : cabac=1 / ref=3 / deblock=1:0:0 /
analyse=0x3:0x13 / me=umh / subme=7 / psy=1 / psy_rd=1.00:0.00 / mixed_ref=1
/ me_range=16 / chroma_me=1 / trellis=1 / 8x8dct=1 / cqm=0 / deadzone=21,11 /
fast_pskip=1 / chroma_qp_offset=-2 / threads=3 / sliced_threads=1 / slices=3
/ nr=0 / decimate=1 / interlaced=0 / constrained_intra=0 / bframes=0 /
weightp=2 / keyint=250 / keyint_min=25 / scenecut=40 / intra_refresh=0 /
rc=cqp / mbtree=0 / qp=30 / ip_ratio=1.40 / aq=0
Audio
ID : 1
Format : MPEG Audio
Format version : Version 1
Format profile : Layer 3
Codec ID : 55
Codec ID/Hint : MP3
Duration : 1h 31mn
Bit rate mode : Constant
Bit rate : 64.0 Kbps
Channel(s) : 1 channel
Sampling rate : 48.0 KHz
Compression mode : Lossy
Stream size : 42.0 MiB (11%)
Alignment : Split accross interleaves
Interleave, duration : 42 ms (1.00 video frame)
Interleave, preload duration : 500 ms
Download / Скачать

Хотите скачать бесплатно? Зарегистрируйтесь на сайте (ссылка на регистрацию). Pirat.ca - самый быстрый торрент трекер в рунете!

Как скачивать  ·   Что такое торрент  ·   Рейтинг и ограничения

Дядя Витя

53912

Пост 30-Апр-2012 23:03 (спустя 1 день 14 часов)

[Q] 


_________________
?
[Профиль]  [ЛС] 
Показать сообщения:    
Ответить на тему

Текущее время: Сегодня 00:04

Часовой пояс: GMT + 4



Вы не можете начинать темы
Вы не можете отвечать на сообщения
Вы не можете редактировать свои сообщения
Вы не можете удалять свои сообщения
Вы не можете голосовать в опросах
Вы не можете прикреплять файлы к сообщениям
Вы не можете скачивать файлы

▼ Вниз