ML
     
  Уважаемый Гость!
Вы можете поддержать проект и зарегистрироваться у наших партнеров - онлайн-стратегия MyLands. При регистрации в игре Вы получите код, который сможете активировать после регистрации на pirat.ca и получить 1000 дублонов.

Ваш код:
cc3be08b7507661c03e0a2f582d0da3a659ea55a
 
     

Военный парад, посвященный 67-й годовщине Победы. Трансляция с Красной площади [2012 г., Военный парад, SATRip]

Ответить на тему
 
Автор
Сообщение

Пост 09-Май-2012 15:28

[Q] 

UcrusPazzo

Военный парад, посвященный 67-й годовщине Победы. Трансляция с Красной площади -Год выпуска: 2012
Производство: Россия
Жанр: Военный парад
Продолжительность серии: 01:00:33
Перевод: Не требуется
Субтитры: отсутствуют-Описание: 9 мая Первый канал представит своим зрителям трансляцию с Красной площади в Москве, на которой пройдет торжественный военный парад, посвященный празднованию 67-й годовщине Дня Победы в Великой Отечественной войне.-Источник/Качество: SATRip
Формат: AVI
Видео кодек: DivX
Аудио кодек: MP3
Видео: 720x400 (1.80:1), 25 fps, DivX Codec 6.8.5/6.9.1 ~1850 kbps avg, 0.26 bit/pixel
Аудио: 48 kHz, MPEG Layer 3, 2 ch, ~128.00 kbps avg
Общее
Формат : AVI
Формат/Информация : Audio Video Interleave
Размер файла : 861 Мбайт
Продолжительность : 1 ч. 0 м.
Общий поток : 1988 Кбит/сек
Программа кодирования : VirtualDubMod 1.5.10.2 (build 2540/release)
Библиотека кодирования : VirtualDub build 29808/release
Видео
Идентификатор : 0
Формат : MPEG-4 Visual
Параметр BVOP формата : 1
Параметр QPel формата : Нет
Параметр GMC формата : Без точки перехода
Параметр матрицы формата : Default (H.263)
Режим смешивания : Сжатый битовый поток
Идентификатор кодека : DX50
Идентификатор кодека/Подсказка : DivX 5
Продолжительность : 1 ч. 0 м.
Битрейт : 1850 Кбит/сек
Ширина : 720 пикселей
Высота : 400 пикселей
Соотношение сторон : 16:9
Частота кадров : 25,000 кадров/сек
Цветовое пространство : YUV
Субдискретизация насыщенности : 4:2:0
Битовая глубина : 8 бит
Тип развёртки : Прогрессивная
Метод сжатия : С потерями
Бит/(Пиксели*Кадры) : 0.257
Размер потока : 802 Мбайт (93%)
Библиотека кодирования : DivX 6.8.5 (UTC 2009-08-20)
Аудио
Идентификатор : 1
Формат : MPEG Audio
Версия формата : Version 1
Профиль формата : Layer 3
Режим : Joint stereo
Расширение режима : MS Stereo
Идентификатор кодека : 55
Идентификатор кодека/Подсказка : MP3
Продолжительность : 1 ч. 0 м.
Вид битрейта : Постоянный
Битрейт : 128 Кбит/сек
Каналы : 2 канала
Частота : 48,0 КГц
Метод сжатия : С потерями
Размер потока : 55,4 Мбайт (6%)
Выравнивание : Соединение по промежуткам
Продолжительность промежутка : 40 мс. (1,00 видеокадр)
Время предзагрузки промежутка : 504 мс.
Download / Скачать

Хотите скачать бесплатно? Зарегистрируйтесь на сайте (ссылка на регистрацию). Pirat.ca - самый быстрый торрент трекер в рунете!

Как скачивать  ·   Что такое торрент  ·   Рейтинг и ограничения

Дядя Витя

53944

Пост 09-Май-2012 15:32 (спустя 3 минуты)

[Q] 



_________________
?
[Профиль]  [ЛС] 

wirtual

Гроза морей

Пост 09-Май-2012 17:49 (спустя 2 часа 16 минут)

[Q] 


_________________
не будешь делиться - останешься одноклеточным
[Профиль]  [ЛС] 

alenfr

Пост 09-Май-2012 18:08 (спустя 19 минут)

[Q] 


_________________
Кто может — делает, кто не может — учит.
______________________________________
Держи порох сухим, а шпагу острой.
[Профиль]  [ЛС] 

lexx

Корсар

129

Пост 09-Май-2012 20:25 (спустя 2 часа 17 минут)

[Q] 

[Профиль]  [ЛС] 

Evgeniy3102

Корсар

3

Пост 10-Май-2012 01:13 (спустя 4 часа)

[Q] 

[Профиль]  [ЛС] 

Jigsaw

Пост 12-Май-2012 23:28 (спустя 2 дня 22 часа)

[Q] 

спасибо огромное нашим доблестным ветеранам вечный поклон
 
Показать сообщения:    
Ответить на тему

Текущее время: Сегодня 05:03

Часовой пояс: GMT + 4



Вы не можете начинать темы
Вы не можете отвечать на сообщения
Вы не можете редактировать свои сообщения
Вы не можете удалять свои сообщения
Вы не можете голосовать в опросах
Вы не можете прикреплять файлы к сообщениям
Вы не можете скачивать файлы

▼ Вниз