ML
     
  Уважаемый Гость!
Вы можете поддержать проект и зарегистрироваться у наших партнеров - онлайн-стратегия MyLands. При регистрации в игре Вы получите код, который сможете активировать после регистрации на pirat.ca и получить 1000 дублонов.

Ваш код:
fcd618d94adc1456bccbde5047c9cd0930e4ae4d
 
     

Легенды бандитской Одессы (фильм 1-20 из 20) (Владимир Шегеда) [2009, Документальный, DVDRip]

Ответить на тему
 
Автор
Сообщение

Пост 21-Май-2012 15:37

[Q] 

genkasper

Легенды бандитской Одессы Дата выхода: 2009
Страна: Украина
Жанр: Документальный
Продолжительность: 20 х ~ 00:26:00
Режиссёр: Владимир Шегеда
В ролях: Виктор Файтельберг-Бланк, Евгений Сальников, Виктор Савченко
Описание: В основе проекта — жизнь криминальной Одессы с начала 20-го века до 40-х годов, великие преступления и легенды преступного мира города. «Легенды бандитской Одессы» — это неизвестные факты о преступной деятельности банды Бим-Бом, человеке, который придумал ГУЛАГ, Одесских прототипах Джеймса Бонда и Остапа Бендера, и о многих других не менее известных личностях.
Список серий
01. Сонька *Золотая ручка*
02. Становление Одесской преступности
03. История Одесской проституции
04. Катакомбные банды Одессы
05. Короли *фальшивок*
06. Легенды бандитского мира *Василий Чумак*,*Илья Кодыма*
07. Дело банды Брендостелли
08. Мэтры подделок *Скифская тиара*
09. Мисс интеллектуальная афера Ольга фон Штейн
10. Атаман *Адский*
11. Погромы 1905 года
12. Воры и налётчики Одессы
13. Дело таинственного Мишица
14. Одесские «Панамы»
15. Дело банды «Триолет»
16. Мишка «Япончик»
17. Дело Витольда Домбровского
18. Зелёный фургон
19. Сто тысяч
20. Бандит, придумавший ГУЛАГ

Сэмпл: http://multi-up.com/705139
Качество: DVDRip
Формат файла: AVI
Видео кодек: XviD
Аудио кодек: MP3
Видео: XviD, 1508 Кбит/с, 640x480, 25.000 fps
Аудио: MP3, 2 ch, 192 Кбит/с, 44.1 KHz
General
Complete name : F:\Legendy.banditskoy.Odessy.(01-20.serii.iz.20).2009.XviD.DVDRip\Legendy.banditskoy.Odessy.(01.seriya.iz.20).Sonka.zolotaya.ruchka.2009.XviD.DVDRip.avi
Format : AVI
Format/Info : Audio Video Interleave
File size : 300 MiB
Duration : 22mn 13s
Overall bit rate : 1 888 Kbps
Video
ID : 0
Format : MPEG-4 Visual
Format profile : Advanced [email protected]
Format settings, BVOP : No
Format settings, QPel : No
Format settings, GMC : No warppoints
Format settings, Matrix : Default (MPEG)
Codec ID : XVID
Codec ID/Hint : XviD
Duration : 22mn 13s
Bit rate : 1 508 Kbps
Width : 640 pixels
Height : 480 pixels
Display aspect ratio : 4:3
Frame rate : 25.000 fps
Color space : YUV
Chroma subsampling : 4:2:0
Bit depth : 8 bits
Scan type : Progressive
Compression mode : Lossy
Bits/(Pixel*Frame) : 0.196
Stream size : 240 MiB (80%)
Writing library : XviD 1.1.2 (UTC 2006-11-01)
Audio
ID : 1
Format : MPEG Audio
Format version : Version 1
Format profile : Layer 3
Codec ID : 55
Codec ID/Hint : MP3
Duration : 22mn 13s
Bit rate mode : Constant
Bit rate : 192 Kbps
Channel(s) : 2 channels
Sampling rate : 44.1 KHz
Compression mode : Lossy
Delay relative to video : 19ms
Stream size : 30.5 MiB (10%)
Alignment : Aligned on interleaves
Interleave, duration : 26 ms (0.65 video frame)
Interleave, preload duration : 19 ms
Download / Скачать

Хотите скачать бесплатно? Зарегистрируйтесь на сайте (ссылка на регистрацию). Pirat.ca - самый быстрый торрент трекер в рунете!

Как скачивать  ·   Что такое торрент  ·   Рейтинг и ограничения



Последний раз редактировалось: genkasper (2012-05-21 21:42), всего редактировалось 2 раз(а)

nadabibak

Гроза морей

Пост 21-Май-2012 17:22 (спустя 1 час 45 минут)

[Q] 

Благодарю за раздачу, весьма познавательно.
[Профиль]  [ЛС] 

сергей0108

Лоцман

Пост 21-Апр-2013 15:06 (спустя 10 месяцев 30 дней)

[Q] 

Станьте раздачу плиз! Очень хочу посмотреть
[Профиль]  [ЛС] 

maratina

Пост 26-Апр-2013 11:54 (спустя 4 дня)

[Q] 

этот объем я скачал и без вашей долбаной регистрации только зря потратил на вас время
[Профиль]  [ЛС] 
Показать сообщения:    
Ответить на тему

Текущее время: Сегодня 12:49

Часовой пояс: GMT + 4



Вы не можете начинать темы
Вы не можете отвечать на сообщения
Вы не можете редактировать свои сообщения
Вы не можете удалять свои сообщения
Вы не можете голосовать в опросах
Вы не можете прикреплять файлы к сообщениям
Вы не можете скачивать файлы

▼ Вниз