ML
     
  Уважаемый Гость!
Вы можете поддержать проект и зарегистрироваться у наших партнеров - онлайн-стратегия MyLands. При регистрации в игре Вы получите код, который сможете активировать после регистрации на pirat.ca и получить 1000 дублонов.

Ваш код:
47bfc18b89c74e4ae0d974e9b6943639e2bff08e
 
     

Лекция для сотрудников ФСБ. "Управление миром" [2007 г., Видео лекция, DVDRip]

Ответить на тему
 
Автор
Сообщение

Пост 22-Май-2012 17:48

[Q] 

дайсик

Лекция для сотрудников ФСБ. "Управление миром" --
Год выпуска: 2007
Страна: Россия
Жанр: Видео лекция
Продолжительность: 02:01:37
Перевод: Не требуется--Описание: Информация адресована тем, кого не устраивают парадоксы, в результате которых умнейший народ богатейшей страны влачит нищенское существование.
Повсюду ходят слухи о зомбировании, массовом гипнозе, который воздействует на выбор людей через телевизор, радио, Интернет и т.д. Люди изобретают изощренные способы для того, что бы управление миром стало легче.
Лекция «Управление миром» снята одним из слушателей на любительскую видеокамеру. Все видно и слышно хорошо. Лекция для сотрудников ФСБ проводится профессором Ефимовым. Управление миром ФСБ лекция о том, какими методами руководствуются политики всего мира для одурачивания простого народа. Начиная с воин, алкоголя и заканчивая на уровне зомбирования и запудривания мозгов идеологией и прочими “мудростями”. Идеология самое страшное оружие против народа, точнее не против, а для того, чтобы мы беспрекословно подчинялись. Информация адресована тем, кого не устраивают парадоксы, в результате которых умнейший народ богатейшей страны влачит нищенское существование.--Затронутые темы:
-Проблемы религии
-Надгосударственная власть
-Проблема алкоголизма
-Войны (кому и как это выгодно)
-Сталин
-Путин и его цель
-Мировоззрение
-Простая экономика, способы одурачивания
-Восток
-Запад, политика против России и др.--Качество: DVDRip
Формат: AVI
Видео кодек: DivX
Аудио кодек: MP3
Видео: 560x448 (1.25:1), 25 fps, DivX Codec 5.01 ~389 kbps avg, 0.06 bit/pixel
Аудио: 44.100 kHz, MPEG Layer 3, 1 ch, ~71.67 kbps avg
Полное имя : H:\С ТОРРЕНТА\Upravlenie_mirom_[tfile.ru].avi
Формат : AVI
Формат/Информация : Audio Video Interleave
Размер файла : 410 Мбайт
Продолжительность : 2 ч. 1 м.
Общий поток : 471 Кбит/сек
Библиотека кодирования : VirtualDub build 15654/release
Видео
Идентификатор : 0
Формат : MPEG-4 Visual
Параметр BVOP формата : Да
Параметр QPel формата : Нет
Параметр GMC формата : Без точки перехода
Параметр матрицы формата : Default (H.263)
Режим смешивания : Сжатый битовый поток
Идентификатор кодека : DX50
Идентификатор кодека/Подсказка : DivX 5
Продолжительность : 2 ч. 1 м.
Битрейт : 389 Кбит/сек
Ширина : 560 пикс.
Высота : 448 пикс.
Соотношение сторон : 5:4
Частота кадров : 25,000 кадр/сек
Цветовое пространство : YUV
Подвыборка цветности : 4:2:0
Битовая глубина : 8 бит
Тип развёртки : Прогрессивная
Метод сжатия : С потерями
Бит/(Пиксели*Кадры) : 0.062
Размер потока : 339 Мбайт (83%)
Библиотека кодирования : DivX 5.0.1 (UTC 2002-04-09)
Аудио
Идентификатор : 1
Формат : GSM 6.10
Идентификатор кодека : 31
Идентификатор кодека/Подсказка : Microsoft
Продолжительность : 2 ч. 1 м.
Битрейт : 71,7 Кбит/сек
Канал(ы) : 1 канал
Частота : 44,1 КГц
Размер потока : 62,3 Мбайт (15%)
Продолжительность промежутка : 40 мс. (1,00 видеокадр)
Время предзагрузки промежутка : 493 ms


Download / Скачать

Хотите скачать бесплатно? Зарегистрируйтесь на сайте (ссылка на регистрацию). Pirat.ca - самый быстрый торрент трекер в рунете!

Как скачивать  ·   Что такое торрент  ·   Рейтинг и ограничения

дайсик ®

5714

Пост 22-Май-2012 17:53 (спустя 4 минуты)

[Q] 

Ефимов В.А. будто Нео из Матрицы, видит все не как обычные люди.
Каму интересно пишите, выложу много его выступлений.
[Профиль]  [ЛС] 

gulyaka777

Морской Волк

Пост 22-Май-2012 19:38 (спустя 1 час 44 минуты)

[Q] 

спасибо, ну что же давайте смотреть и учиться управлять миром ВАААХХХХААААА
[Профиль]  [ЛС] 

Maxim54rus

Корсар

40

Пост 22-Май-2012 19:56 (спустя 18 минут)

[Q] 

давай еще!
[Профиль]  [ЛС] 

MaXoR

Флибустьер

1475

Пост 22-Май-2012 23:11 (спустя 3 часа)

[Q] 

Ребят,рассказывает по делу, интересно или воду льет?Время стоит тратить?

_________________
Живы будем - не помрем!
[Профиль]  [ЛС] 

Obman

Корсар

Пост 22-Май-2012 23:27 (спустя 16 минут)

[Q] 

Интересно. Посмотрю.
[Профиль]  [ЛС] 

MrBuRaTiNo

Штурман

Пост 23-Май-2012 01:41 (спустя 2 часа 13 минут)

[Q] 

уже несколько лет держу этот фильм у себя на компе.довольно таки познавательно)встану на раздачу)
[Профиль]  [ЛС] 

дайсик ®

5714

Пост 23-Май-2012 10:31 (спустя 8 часов)

[Q] 

Ребят,рассказывает по делу, интересно или воду льет?Время стоит тратить?
стоит послушать его
давай еще!
хорошо, выложу еще, где то 12 гигов есть
[Профиль]  [ЛС] 

bruder

Флибустьер

Пост 23-Май-2012 19:14 (спустя 8 часов)

[Q] 

Давай послушаем русского Нео...

_________________
[Профиль]  [ЛС] 
Показать сообщения:    
Ответить на тему

Текущее время: Сегодня 07:01

Часовой пояс: GMT + 4



Вы не можете начинать темы
Вы не можете отвечать на сообщения
Вы не можете редактировать свои сообщения
Вы не можете удалять свои сообщения
Вы не можете голосовать в опросах
Вы не можете прикреплять файлы к сообщениям
Вы не можете скачивать файлы

▼ Вниз