ML
     
  Уважаемый Гость!
Вы можете поддержать проект и зарегистрироваться у наших партнеров - онлайн-стратегия MyLands. При регистрации в игре Вы получите код, который сможете активировать после регистрации на pirat.ca и получить 1000 дублонов.

Ваш код:
c3360d664ceb84802c84b88ed062a5d134e2ba97
 
     

BBC: 10 вещей, которые вы не знали о потере веса / BBC: 10 Things You Need to Know About Losing Weight Год (Крис Зальт / Chris Salt) [2009 г., документальный, научно-популярный, TVRip, 480p] MVO

Ответить на тему
 
Автор
Сообщение

Пост 01-Июл-2012 20:14

[Q] 

Red Corsair

Шкипер

BBC: 10 вещей, которые вы не знали о потере веса / BBC: 10 Things You Need to Know About Losing Weight Год
Год выпуска: 2009
Производство: Великобритания, BBC
Жанр: документальный, научно-популярный
Продолжительность серии: 00:50:28
Перевод: Профессиональный (многоголосый, закадровый)
Субтитры: отсутствуют
Режиссер: Крис Зальт / Chris Salt
Описание: Сегодня каждый шестой человек в мире страдает от лишнего веса. В 1980-2000 гг. количество случаев ожирения у взрослых увеличилось более чем вдвое; количество случаев ожирения у подростков увеличилось в три раза. Каждая банка безалкогольного напитка ежедневно увеличивает риск ожирения на 41%.
Иногда кажется, что вокруг нас все сидят на диете или собираются сесть на диету. Познавательная программа телекомпании BBC расскажет вам о всемирном увлечении идеей похудения и исследует способы и методы, которые используют люди, стремящиеся похудеть. Авторы фильма приводят научные обоснования способов, которые оказались успешными, и, что более важно, рассказывают о том, чего делать не стоит.
Героями программы стали добровольцы, многие из которых борются с лишним весом. Они приняли участие в исследованиях для того, чтобы выяснить, работают ли новые научные теории, связанные с похудением. Авторы приводят десять фактов о похудении, которых мы не знали, и, кроме того, им удалось выяснить: "Почему не работают радикальные диеты?" и "Кому проще похудеть – женщине или мужчине?" В фильме освещаются такие темы, как "Более питательная пища – хороший способ победить голод", "Молочные продукты – лучшие помощники при диете" и даже "Как сжечь жир через 24 часа после физических упражнений".
Источник/Качество: TVRip
Формат: AVI
Стандарт разрешения: 480p
Видео кодек: DivX
Аудио кодек: MP3
Видео: 640x480 (4:3), 1500kbps, 25.00fps
Аудио: 192kbps, stereo, 48kHz
Format : AVI
Format/Info : Audio Video Interleave
File size : 614 MiB
Duration : 50mn 28s
Overall bit rate : 1 702 Kbps
Writing application : VirtualDubModRus 1.5.10.1 (build 2439/release)
Writing library : VirtualDubMod build 2439/release
Video
ID : 0
Format : MPEG-4 Visual
Format settings, BVOP : 2
Format settings, QPel : No
Format settings, GMC : No warppoints
Format settings, Matrix : Default (H.263)
Muxing mode : Packed bitstream
Codec ID : DX50
Codec ID/Hint : DivX 5
Duration : 50mn 28s
Bit rate : 1 500 Kbps
Width : 640 pixels
Height : 480 pixels
Display aspect ratio : 4:3
Frame rate : 25.000 fps
Color space : YUV
Chroma subsampling : 4:2:0
Bit depth : 8 bits
Scan type : Progressive
Compression mode : Lossy
Bits/(Pixel*Frame) : 0.195
Stream size : 542 MiB (88%)
Writing library : DivX 6.8.5 (UTC 2009-08-20)
Audio
ID : 1
Format : MPEG Audio
Format version : Version 1
Format profile : Layer 2
Codec ID : 50
Duration : 50mn 28s
Bit rate mode : Constant
Bit rate : 192 Kbps
Channel(s) : 2 channels
Sampling rate : 48.0 KHz
Compression mode : Lossy
Stream size : 69.3 MiB (11%)
Alignment : Aligned on interleaves
Interleave, duration : 40 ms (1.00 video frame)
Interleave, preload duration : 504 ms
Download / Скачать

Хотите скачать бесплатно? Зарегистрируйтесь на сайте (ссылка на регистрацию). Pirat.ca - самый быстрый торрент трекер в рунете!

Как скачивать  ·   Что такое торрент  ·   Рейтинг и ограничения



Последний раз редактировалось: Red Corsair (2012-07-02 09:24), всего редактировалось 1 раз

Obman

Корсар

Пост 02-Июл-2012 18:59 (спустя 22 часа)

[Q] 

[Профиль]  [ЛС] 
Показать сообщения:    
Ответить на тему

Текущее время: Сегодня 10:07

Часовой пояс: GMT + 4



Вы не можете начинать темы
Вы не можете отвечать на сообщения
Вы не можете редактировать свои сообщения
Вы не можете удалять свои сообщения
Вы не можете голосовать в опросах
Вы не можете прикреплять файлы к сообщениям
Вы не можете скачивать файлы

▼ Вниз