ML
     
  Уважаемый Гость!
Вы можете поддержать проект и зарегистрироваться у наших партнеров - онлайн-стратегия MyLands. При регистрации в игре Вы получите код, который сможете активировать после регистрации на pirat.ca и получить 1000 дублонов.

Ваш код:
e93cd9e43017f251127f220889864c05934e61c6
 
     

Почему мы видим сны? / BBC Horizon. Why Do We Dream? [2009 г., Документальный, научно-популярный, TVRip] MVO [Хуан Рохас (блог)]

Ответить на тему
 
Автор
Сообщение

Пост 04-Июл-2012 09:05

[Q] 

дайсик

-Почему мы видим сны? / BBC Horizon. Why Do We Dream? -- Год выпуска: 2009
Производство: Великобритания
Жанр: Документальный, научно-популярный
Продолжительность серии: 00:58:24
Перевод: Профессиональный (одноголосый, закадровый) Хуан Рохас (блог)
Оригинальный аудиопоток: английский
Субтитры: отсутствуют
Описание: Откуда берутся наши сны? Имеют ли они какой-то смысл? Почему они нам снятся?
Что нам известно о сновидениях? Сны - это не просто какие-то непонятные видения. Они играют важную роль в нашей жизни, оказывая влияние на наши воспоминания, способности к обучению и психическое здоровье.
Удивительно то, что кошмары также полезны и могут объяснить наши способности к выживанию
Источник/Качество: TVRip
Формат: AVI
Видео кодек: XviD
Аудио кодек: MP3
Видео: XVID, 688*384, 16:9, 1623 Kbps, 25 fps,
Аудио #1: MPEG Layer 3, 192 Kbps, 48 kHz, 2 channels (русский)
Аудио #2: MPEG Layer 3, 154.00 kbps, 48 kHz, 2 ch (английский)
Формат : AVI
Формат/Информация : Audio Video Interleave
Размер файла : 830 Мбайт
Продолжительность : 58 м.
Общий поток : 1987 Кбит/сек
Программа кодирования : VirtualDubMod 1.5.10.2 (build 2540/release)
Библиотека кодирования : VirtualDubMod build 2540/release
Видео
Идентификатор : 0
Формат : MPEG-4 Visual
Профиль формата : Advanced [email protected]
Параметр BVOP формата : Да
Параметр QPel формата : Нет
Параметр GMC формата : Без точки перехода
Параметр матрицы формата : Default (H.263)
Идентификатор кодека : XVID
Идентификатор кодека/Подсказка : XviD
Продолжительность : 58 м.
Битрейт : 1623 Кбит/сек
Ширина : 688 пикс.
Высота : 384 пикс.
Соотношение сторон : 16:9
Частота кадров : 25,000 кадр/сек
Цветовое пространство : YUV
Подвыборка цветности : 4:2:0
Битовая глубина : 8 бит
Тип развёртки : Прогрессивная
Метод сжатия : С потерями
Бит/(Пиксели*Кадры) : 0.246
Размер потока : 678 Мбайт (82%)
Библиотека кодирования : XviD 1.2.1 (UTC 2008-12-04)
Аудио #1
Идентификатор : 1
Формат : MPEG Audio
Версия формата : Version 1
Профиль формата : Layer 3
Режим : Joint stereo
Идентификатор кодека : 55
Идентификатор кодека/Подсказка : MP3
Продолжительность : 58 м.
Вид битрейта : Постоянный
Битрейт : 192 Кбит/сек
Канал(ы) : 2 канала(ов)
Частота : 48,0 КГц
Метод сжатия : С потерями
Размер потока : 80,2 Мбайт (10%)
Выравнивание : Соединение по промежуткам
Продолжительность промежутка : 40 мс. (1,00 видеокадр)
Время предзагрузки промежутка : 504 ms
Аудио #2
Идентификатор : 2
Формат : MPEG Audio
Версия формата : Version 1
Профиль формата : Layer 3
Режим : Joint stereo
Идентификатор кодека : 55
Идентификатор кодека/Подсказка : MP3
Продолжительность : 58 м.
Вид битрейта : Переменный
Битрейт : 154 Кбит/сек
Минимальный битрейт : 32,0 Кбит/сек
Канал(ы) : 2 канала(ов)
Частота : 48,0 КГц
Метод сжатия : С потерями
Размер потока : 64,5 Мбайт (8%)
Выравнивание : Соединение по промежуткам
Продолжительность промежутка : 24 мс. (0,60 видеокадр)
Время предзагрузки промежутка : 474 ms
Библиотека кодирования : LAME3.98r
Настройки программы : -m j -V 4 -q 0 -lowpass 17.5 --vbr-new -b 32
Download / Скачать

Хотите скачать бесплатно? Зарегистрируйтесь на сайте (ссылка на регистрацию). Pirat.ca - самый быстрый торрент трекер в рунете!

Как скачивать  ·   Что такое торрент  ·   Рейтинг и ограничения

surzis

Корсар

Пост 04-Июл-2012 16:01 (спустя 6 часов)

[Q] 

спасибо, заценим

_________________
http://surzis.ru/ - заходи ко мне в блог! Советую только хорошие фильмы и игры!
[Профиль]  [ЛС] 

Oksika

Флибустьер

Пост 07-Дек-2012 02:21 (спустя 5 месяцев 2 дня)

[Q] 

Позновательный фильм. А почему кто-то никогда не видит снов - тоже загадка.
[Профиль]  [ЛС] 

Максевич

Штурман

Пост 19-Дек-2012 15:11 (спустя 12 дней)

[Q] 

Удивительно то, что кошмары также полезны и могут объяснить наши способности к выживанию
Вот это нам впаривать ненадо!

_________________
[Профиль]  [ЛС] 

Oksika

Флибустьер

Пост 16-Июл-2013 23:06 (спустя 6 месяцев 28 дней)

[Q] 

А полёты во снах - прекрасны!
И никакое это не заболевание.
[Профиль]  [ЛС] 

DESIER8

489

Пост 20-Янв-2014 00:52 (спустя 6 месяцев 3 дня)

[Q] 

чушь какая то!!!
[Профиль]  [ЛС] 

lo.oktosky

Морской Волк

Пост 14-Апр-2014 12:35 (спустя 2 месяца 25 дней)

[Q] 

что-то новое узнал.
но фильм можно на треть сократить cm
Автору респект!!!
[Профиль]  [ЛС] 

ElSkorpio

16

Пост 12-Май-2014 20:18 (спустя 28 дней)

[Q] 

На любителя на пол разика

_________________
[Профиль]  [ЛС] 
Показать сообщения:    
Ответить на тему

Текущее время: Сегодня 04:27

Часовой пояс: GMT + 4



Вы не можете начинать темы
Вы не можете отвечать на сообщения
Вы не можете редактировать свои сообщения
Вы не можете удалять свои сообщения
Вы не можете голосовать в опросах
Вы не можете прикреплять файлы к сообщениям
Вы не можете скачивать файлы

▼ Вниз