ML
     
  Уважаемый Гость!
Вы можете поддержать проект и зарегистрироваться у наших партнеров - онлайн-стратегия MyLands. При регистрации в игре Вы получите код, который сможете активировать после регистрации на pirat.ca и получить 1000 дублонов.

Ваш код:
e93cd9e43017f251127f220889864c05934e61c6
 
     

Космос / Space BBC [2005 г., Документальный, Научно-популярный, DVDRip-AVC] VO

Ответить на тему
 
Автор
Сообщение

Пост 04-Июл-2012 09:45

[Q] 

дайсик

-Космос / Space BBC -- Год выпуска: 2005
Производство: Великобритания
Жанр: Документальный, Научно-популярный
Продолжительность серии:02:30:31
Перевод: Любительский (одноголосый, закадровый)
Субтитры: отсутствуют
Описание: Посмотрев на ночное небо, вы увидите множество светящихся точек, каждая из которых может оказаться целой галактикой. Новый документальный сериал "Космос" - это увлекательный и красочный рассказ о величайших загадках мироздания: рождении сверхновых звезд и гибели целых звездных систем, о голубых гигантах и красных карликах, о строении и истории возникновения нашей солнечной системы. В сериале использованы самые современные технологии съемки с применением специально разработанной компьютерной графики и уникальные кадры, полученные при помощи космической техники. Теперь вы сможете наглядно представить себе, насколько необъятна и удивительна Вселенная!
Источник/Качество: DVDRip-AVC
Формат: AVI
Видео кодек: DivX
Аудио кодек: MP3
Видео: 512*384 (1.33), 25 fps, DivX Codec 4.x, ~1244 kbps, 0.26 bit/pixel
Аудио: 44.1 kHz, MPEG Layer 3, 2 ch, ~98 kbps
Формат : AVI
Формат/Информация : Audio Video Interleave
Размер файла : 701 Мбайт
Продолжительность : 1 ч. 12 м.
Общий поток : 1354 Кбит/сек
Программа кодирования : VirtualDubMod 1.5.4.1 (build 2178/release)
Библиотека кодирования : VirtualDubMod build 2178/release
Видео
Идентификатор : 0
Формат : MPEG-4 Visual
Параметр BVOP формата : Да
Параметр QPel формата : Нет
Параметр GMC формата : Без точки перехода
Параметр матрицы формата : Default (H.263)
Режим смешивания : Сжатый битовый поток
Идентификатор кодека : DX50
Идентификатор кодека/Подсказка : DivX 5
Продолжительность : 1 ч. 12 м.
Битрейт : 1243 Кбит/сек
Ширина : 512 пикс.
Высота : 384 пикс.
Соотношение сторон : 4:3
Частота кадров : 25,000 кадр/сек
Цветовое пространство : YUV
Подвыборка цветности : 4:2:0
Битовая глубина : 8 бит
Тип развёртки : Прогрессивная
Метод сжатия : С потерями
Бит/(Пиксели*Кадры) : 0.253
Размер потока : 643 Мбайт (92%)
Библиотека кодирования : DivX 5.1.1 (Maupiti) (UTC 2003-11-19)
Аудио
Идентификатор : 1
Формат : MPEG Audio
Версия формата : Version 1
Профиль формата : Layer 3
Режим : Joint stereo
Расширение режима : MS Stereo
Идентификатор кодека : 55
Идентификатор кодека/Подсказка : MP3
Продолжительность : 1 ч. 12 м.
Вид битрейта : Переменный
Битрейт : 96,0 Кбит/сек
Канал(ы) : 2 канала(ов)
Частота : 44,1 КГц
Метод сжатия : С потерями
Размер потока : 50,8 Мбайт (7%)
Выравнивание : Соединение по промежуткам
Продолжительность промежутка : 26 мс. (0,65 видеокадр)
Время предзагрузки промежутка : 500 ms
Библиотека кодирования : LAME3.96r
Настройки программы : -m j -V 4 -q 2 -lowpass 15.3 --abr 96
Download / Скачать

Хотите скачать бесплатно? Зарегистрируйтесь на сайте (ссылка на регистрацию). Pirat.ca - самый быстрый торрент трекер в рунете!

Как скачивать  ·   Что такое торрент  ·   Рейтинг и ограничения



Последний раз редактировалось: дайсик (2012-07-05 06:14), всего редактировалось 2 раз(а)

Пост 05-Июл-2012 08:35 (спустя 22 часа)

Топик был перенесен из форума Документальные фильмы и передачи в форум BBC

UcrusPazzo
 

YAZuk

Штурман

Пост 16-Сен-2012 17:50 (спустя 2 месяца 12 дней)

[Q] 

[Профиль]  [ЛС] 
Показать сообщения:    
Ответить на тему

Текущее время: Сегодня 04:30

Часовой пояс: GMT + 4



Вы не можете начинать темы
Вы не можете отвечать на сообщения
Вы не можете редактировать свои сообщения
Вы не можете удалять свои сообщения
Вы не можете голосовать в опросах
Вы не можете прикреплять файлы к сообщениям
Вы не можете скачивать файлы

▼ Вниз