ML
     
  Уважаемый Гость!
Вы можете поддержать проект и зарегистрироваться у наших партнеров - онлайн-стратегия MyLands. При регистрации в игре Вы получите код, который сможете активировать после регистрации на pirat.ca и получить 1000 дублонов.

Ваш код:
db0e0ad91548759ffeb9bb88bed405e1a4b3c165
 
     

BBC: 80 Чудес света / BBC: Around the world in 80 treasures (5 частей) (Дэн Крикшэнк / Dan Cruickshank) [2005 г., Документальный, исторический, DVDRip] (VO)

Ответить на тему
 
Автор
Сообщение

Пост 11-Дек-2011 13:51

[Q] 

UcrusPazzo

BBC: 80 Чудес света / BBC: Around the world in 80 treasures -Год выпуска: 2005
Мировая премьера: 21 февраля 2005
Производство: Великобритания, BBC
Жанр: Документальный, исторический
Продолжительность: 5 частей - 10 серий ~ 59 минут, общее время - 09:52:20
Перевод: Профессиональный (одноголосый)
Оригинальный аудиопоток: Английский-Режиссер: Дэн Крикшэнк / Dan Cruickshank
Продюсер: Тим Данн, Basil Comely-В ролях: Дэн Крикшэнк-Описание: Перед вами необычное и захватывающее кругосветное путешествие, в котором вы узнаете о восьмидесяти самых великих сокровищах в истории человечества! Кое-что из них уже давно признано достоянием истории, но есть и менее известные места, вызывающие яркие впечатления, а кое-что из того, что вы увидите, просто потрясет вас.-Источник/Качество: DVDRip
Формат: AVI
Видео кодек: XviD
Аудио кодек: MP3
Видео: 672x368 (1.83:1), 25 fps, XviD MPEG-4 ~1372 kbps avg, 0.22 bit/pixel
Аудио: 48 kHz, MPEG Layer 3, 2 ch, ~128.00 kbps avg
Аудио #2: 48 kHz, MPEG Layer 3, 2 ch, ~128.00 kbps avg
Субтитры: нет ----Описание серий: Часть 1. От Перу до Бразилии. От Мексики до США
Peru to Brazil. Mexico to America
От Перу до Бразилии
Чудо света 1 - Город Мачу Пикчу / Machu Picchu
Чудо света 2 - Соляные прииски инков / Inca Salt Pans
Чудо света 3 - Рисунки пустыни Наска / The Nazca Lines
Чудо света 4 - Паучьи сети Сипана / Spider Necklace Of Sipan
Чудо света 5 - Город Чан Чан / Chan Chan
Чудо света 6 - Статуи острова Пасхи / The Moai Of Easter Island
Чудо света 7 - Головные уборы Сипана / Umahara Headdress
Чудо света 8 - Статуя Христа-спасителя / Christ The Redeemer
Вас ждет знакомство с одной из величайших культур древности - цивилизации инков. Вы познакомитесь с удивительным городом Мачу-Пикчу, про который говорят, что это ворота на небеса в обитель богов. Вы сможете стать свидетелями самого таинственного зрелища на планете - рисунков в пустыне Наска; увидите "Паучьи сети Сипана" - необычные ожерелья, найденные в захоронении Владыки Сипана, которым около двух тысяч лет; узнаете историю гигантских Статуй Острова Пасхи и многое другое.
От Мексики до США
Чудо света 9 - Город Паленке / Palenque
Чудо света 10 - Титаны Тула / The Giants Tula
Чудо света 11 - Картина "Человек - центр мироздания" / Man, Controller Of The Universe
Чудо света 12 - Револьвер Кольт 1851 года / 1851 Navy Colt Revolver
Чудо света 13 - Меса Верде / Mesa Verde
Чудо света 14 - Монтичелло / Monticello
Чудо света 15 - Статуя Свободы / The Statue Of Liberty
Чудо света 16 - Небоскреб Сиграм-билдинг / The Seagram Building
Во второй серии фильма зрителю предстоит познакомиться с произведениями архитектуры и искусства народов древней и современной Америки. Все от одной из самых древних и жестоких культур - племени Майя, до современных изобретений человечества. Путешествие от каньонов Скалистых гор, до знаменитых небоскребов Нью-Йорка.
Перед вами необычное и захватывающее кругосветное путешествие, в котором вы узнаете о восьмидесяти самых великих сокровищах в истории человечества! Кое-что из них уже давно признано достоянием истории, но есть и менее известные места, вызывающие яркие впечатления, а кое-что из того, что вы увидите, просто потрясет вас.
От Перу до БразилииОбщее
Формат : AVI
Формат/Информация : Audio Video Interleave
Размер файла : 698 Мбайт
Продолжительность : 59 м.
Общий поток : 1643 Кбит/сек
Название фильма : Peru to Brazil
Часть/Положение : 1
Режиссёр : Dan Cruickshank
Запись произвёл : Dan Cruickshank
Продюсер : Basil Comely
Кодирование произвёл : DarkGhost
Жанр : документальный
Дата записи : 2005
Программа кодирования : VirtualDubMod 1.5.10.2 (build 2540/release) VirtualDubMod build 2540/release
Формат оригинала/Имя : фильм
Правообладатель : BBC
Видео
Идентификатор : 0
Формат : MPEG-4 Visual
Профиль формата : Advanced [email protected]
Параметр BVOP формата : 2
Параметр QPel формата : Нет
Параметр GMC формата : Без точки перехода
Параметр матрицы формата : Default (H.263)
Режим смешивания : Сжатый битовый поток
Идентификатор кодека : XVID
Идентификатор кодека/Подсказка : XviD
Продолжительность : 59 м.
Битрейт : 1373 Кбит/сек
Ширина : 672 пикселя
Высота : 368 пикселей
Соотношение сторон : 16:9
Частота кадров : 25,000 кадров/сек
Цветовое пространство : YUV
Субдискретизация насыщенности : 4:2:0
Битовая глубина : 8 бит
Тип развёртки : Прогрессивная
Метод сжатия : С потерями
Бит/(Пиксели*Кадры) : 0.222
Размер потока : 583 Мбайт (84%)
Библиотека кодирования : XviD 1.1.2 (UTC 2006-11-01)
Аудио #1
Идентификатор : 1
Формат : MPEG Audio
Версия формата : Version 1
Профиль формата : Layer 3
Режим : Joint stereo
Расширение режима : MS Stereo
Идентификатор кодека : 55
Идентификатор кодека/Подсказка : MP3
Продолжительность : 59 м.
Вид битрейта : Постоянный
Битрейт : 128 Кбит/сек
Каналы : 2 канала
Частота : 48,0 КГц
Метод сжатия : С потерями
Размер потока : 54,3 Мбайт (8%)
Выравнивание : Соединение по промежуткам
Продолжительность промежутка : 40 мс. (1,00 видеокадр)
Время предзагрузки промежутка : 504 мс.
Язык : =
Аудио #2
Идентификатор : 2
Формат : MPEG Audio
Версия формата : Version 1
Профиль формата : Layer 3
Режим : Joint stereo
Расширение режима : MS Stereo
Идентификатор кодека : 55
Идентификатор кодека/Подсказка : MP3
Продолжительность : 59 м.
Вид битрейта : Постоянный
Битрейт : 128 Кбит/сек
Каналы : 2 канала
Частота : 48,0 КГц
Метод сжатия : С потерями
Размер потока : 54,4 Мбайт (8%)
Выравнивание : Соединение по промежуткам
Продолжительность промежутка : 40 мс. (1,00 видеокадр)
Время предзагрузки промежутка : 504 мс.
--От Мексики до СШАОбщее
Формат : AVI
Формат/Информация : Audio Video Interleave
Размер файла : 698 Мбайт
Продолжительность : 59 м.
Общий поток : 1649 Кбит/сек
Название фильма : Mexico to America
Часть/Положение : 2
Режиссёр : Dan Cruickshank
Запись произвёл : Dan Cruickshank
Продюсер : Basil Comely
Кодирование произвёл : DarkGhost
Жанр : документальный
Дата записи : 2005
Программа кодирования : VirtualDubMod 1.5.10.2 (build 2540/release) VirtualDubMod build 2540/release
Формат оригинала/Имя : фильм
Правообладатель : BBC
Видео
Идентификатор : 0
Формат : MPEG-4 Visual
Профиль формата : Advanced [email protected]
Параметр BVOP формата : 2
Параметр QPel формата : Нет
Параметр GMC формата : Без точки перехода
Параметр матрицы формата : Default (H.263)
Режим смешивания : Сжатый битовый поток
Идентификатор кодека : XVID
Идентификатор кодека/Подсказка : XviD
Продолжительность : 59 м.
Битрейт : 1378 Кбит/сек
Ширина : 672 пикселя
Высота : 368 пикселей
Соотношение сторон : 16:9
Частота кадров : 25,000 кадров/сек
Цветовое пространство : YUV
Субдискретизация насыщенности : 4:2:0
Битовая глубина : 8 бит
Тип развёртки : Прогрессивная
Метод сжатия : С потерями
Бит/(Пиксели*Кадры) : 0.223
Размер потока : 584 Мбайт (84%)
Библиотека кодирования : XviD 1.1.2 (UTC 2006-11-01)
Аудио #1
Идентификатор : 1
Формат : MPEG Audio
Версия формата : Version 1
Профиль формата : Layer 3
Режим : Joint stereo
Идентификатор кодека : 55
Идентификатор кодека/Подсказка : MP3
Продолжительность : 59 м.
Вид битрейта : Постоянный
Битрейт : 128 Кбит/сек
Каналы : 2 канала
Частота : 48,0 КГц
Метод сжатия : С потерями
Размер потока : 54,1 Мбайт (8%)
Выравнивание : Соединение по промежуткам
Продолжительность промежутка : 40 мс. (1,00 видеокадр)
Время предзагрузки промежутка : 504 мс.
Язык : =
Аудио #2
Идентификатор : 2
Формат : MPEG Audio
Версия формата : Version 1
Профиль формата : Layer 3
Режим : Joint stereo
Расширение режима : MS Stereo
Идентификатор кодека : 55
Идентификатор кодека/Подсказка : MP3
Продолжительность : 59 м.
Вид битрейта : Постоянный
Битрейт : 128 Кбит/сек
Каналы : 2 канала
Частота : 48,0 КГц
Метод сжатия : С потерями
Размер потока : 54,2 Мбайт (8%)
Выравнивание : Соединение по промежуткам
Продолжительность промежутка : 40 мс. (1,00 видеокадр)
Время предзагрузки промежутка : 504 мс.
-- Часть 2. От Австралии до Камбоджи. От Японии до Китая
Australia to Cambodia. Japan to China
От Австралии до Камбоджи
Чудо света 17 - Церковь Святого Джеймса / St. James' Church
Чудо света 18 - Заповедник наскальной живописи "Какаду" / Kakadu Rock Art
Чудо света 19 - Тораджаланд - дома духов / Spirit Houses Of Torajaland
Чудо света 20 - Город мертвых - Тау Тау / Tau Tau
Чудо света 21 - Храм Борободур / Borobodur
Чудо света 22 - Золотой слон Аюттайи / Gold Elephant Of Ayutthaya
Чудо света 23 - Храм Ангкор Ват / Angkor Wat
Чудо света 24 - Каменные лица Байона / Stone Faces Of Bayon
Нам предстоит отправиться в Юго-Восточную Азию и Австралию, чтобы увидеть выдающиеся творения человеческих рук. Мы отправимся в мир духов и посетим город мертвых "Тау-Тау"; заповедник наскальной живописи "Какаду"; буддийский храм, все стены и колонны которого сложены из плит, представляющих человеческие лица; шедевр ювелирного искусства "Золотой слон Аюттайи" и многое другое...
От Японии до Китая
Чудо света 25 - Самурайский меч / The Samurai Sword
Чудо света 26 - Замок Химедзи / Himeji Castle
Чудо света 27 - Сад Руанджи в стиле Дзен / Ryoanji Zen Buddhist Garden
Чудо света 28 - Запретный город / The Forbidden City
Чудо света 29 - Летний парковый дворец / Summer Palace Park
Чудо света 30 - Великая китайская стена / The Great Wall Of China
Чудо света 31 - Армия терракотовых воинов / The Terracotta Army
Чудо света 32 - Фарфор династии Мин / Ming Porcelain
Путешествие продолжается, и мы отправляемся в таинственные и загадочные страны Дальнего востока - Японию и Китай. На их территории некогда возникли и существовали древнейшие цивилизации мира, исключительно важные по своему культурно-историческому значению для всего человечества. Вы увидите, как изготавливают настоящие самурайские мечи, посетите Замок Химедзи и храм Киото, знаменитый своим роскошным садом. В путешествии вас ждет: самый большой дворцовый комплекс в мире "Запретный город"; пожалуй, самое сложное инженерное сооружение в истории человечества - "Великая китайская стена"; одно из удивительнейших сокровищ человеческой истории "Армия терракотовых воинов", скрытое от глаз людей более двух тысяч лет.
От Австралии до КамбоджиОбщее
Формат : AVI
Формат/Информация : Audio Video Interleave
Размер файла : 698 Мбайт
Продолжительность : 59 м.
Общий поток : 1645 Кбит/сек
Название фильма : Australia to Cambodia
Часть/Положение : 3
Режиссёр : Dan Cruickshank
Запись произвёл : Dan Cruickshank
Продюсер : Basil Comely
Кодирование произвёл : DarkGhost
Жанр : документальный
Дата записи : 2005
Программа кодирования : VirtualDubMod 1.5.10.2 (build 2540/release) VirtualDubMod build 2540/release
Формат оригинала/Имя : фильм
Правообладатель : BBC
Видео
Идентификатор : 0
Формат : MPEG-4 Visual
Профиль формата : Advanced [email protected]
Параметр BVOP формата : 2
Параметр QPel формата : Нет
Параметр GMC формата : Без точки перехода
Параметр матрицы формата : Default (H.263)
Режим смешивания : Сжатый битовый поток
Идентификатор кодека : XVID
Идентификатор кодека/Подсказка : XviD
Продолжительность : 59 м.
Битрейт : 1375 Кбит/сек
Ширина : 672 пикселя
Высота : 368 пикселей
Соотношение сторон : 16:9
Частота кадров : 25,000 кадров/сек
Цветовое пространство : YUV
Субдискретизация насыщенности : 4:2:0
Битовая глубина : 8 бит
Тип развёртки : Прогрессивная
Метод сжатия : С потерями
Бит/(Пиксели*Кадры) : 0.222
Размер потока : 583 Мбайт (84%)
Библиотека кодирования : XviD 1.1.2 (UTC 2006-11-01)
Аудио #1
Идентификатор : 1
Формат : MPEG Audio
Версия формата : Version 1
Профиль формата : Layer 3
Режим : Joint stereo
Расширение режима : MS Stereo
Идентификатор кодека : 55
Идентификатор кодека/Подсказка : MP3
Продолжительность : 59 м.
Вид битрейта : Постоянный
Битрейт : 128 Кбит/сек
Каналы : 2 канала
Частота : 48,0 КГц
Метод сжатия : С потерями
Размер потока : 54,3 Мбайт (8%)
Выравнивание : Соединение по промежуткам
Продолжительность промежутка : 40 мс. (1,00 видеокадр)
Время предзагрузки промежутка : 504 мс.
Язык : =
Аудио #2
Идентификатор : 2
Формат : MPEG Audio
Версия формата : Version 1
Профиль формата : Layer 3
Режим : Joint stereo
Расширение режима : MS Stereo
Идентификатор кодека : 55
Идентификатор кодека/Подсказка : MP3
Продолжительность : 59 м.
Вид битрейта : Постоянный
Битрейт : 128 Кбит/сек
Каналы : 2 канала
Частота : 48,0 КГц
Метод сжатия : С потерями
Размер потока : 54,3 Мбайт (8%)
Выравнивание : Соединение по промежуткам
Продолжительность промежутка : 40 мс. (1,00 видеокадр)
Время предзагрузки промежутка : 504 мс.
--От Японии до КитаяОбщее
Формат : AVI
Формат/Информация : Audio Video Interleave
Размер файла : 698 Мбайт
Продолжительность : 59 м.
Общий поток : 1643 Кбит/сек
Название фильма : Japan to China
Часть/Положение : 4
Режиссёр : Dan Cruickshank
Запись произвёл : Dan Cruickshank
Продюсер : Basil Comely
Кодирование произвёл : DarkGhost
Жанр : документальный
Дата записи : 2005
Программа кодирования : VirtualDubMod 1.5.10.2 (build 2540/release) VirtualDubMod build 2540/release
Формат оригинала/Имя : фильм
Правообладатель : BBC
Видео
Идентификатор : 0
Формат : MPEG-4 Visual
Профиль формата : Advanced [email protected]
Параметр BVOP формата : 2
Параметр QPel формата : Нет
Параметр GMC формата : Без точки перехода
Параметр матрицы формата : Default (H.263)
Режим смешивания : Сжатый битовый поток
Идентификатор кодека : XVID
Идентификатор кодека/Подсказка : XviD
Продолжительность : 59 м.
Битрейт : 1373 Кбит/сек
Ширина : 672 пикселя
Высота : 368 пикселей
Соотношение сторон : 16:9
Частота кадров : 25,000 кадров/сек
Цветовое пространство : YUV
Субдискретизация насыщенности : 4:2:0
Битовая глубина : 8 бит
Тип развёртки : Прогрессивная
Метод сжатия : С потерями
Бит/(Пиксели*Кадры) : 0.222
Размер потока : 583 Мбайт (84%)
Библиотека кодирования : XviD 1.1.2 (UTC 2006-11-01)
Аудио #1
Идентификатор : 1
Формат : MPEG Audio
Версия формата : Version 1
Профиль формата : Layer 3
Режим : Joint stereo
Расширение режима : MS Stereo
Идентификатор кодека : 55
Идентификатор кодека/Подсказка : MP3
Продолжительность : 59 м.
Вид битрейта : Постоянный
Битрейт : 128 Кбит/сек
Каналы : 2 канала
Частота : 48,0 КГц
Метод сжатия : С потерями
Размер потока : 54,3 Мбайт (8%)
Выравнивание : Соединение по промежуткам
Продолжительность промежутка : 40 мс. (1,00 видеокадр)
Время предзагрузки промежутка : 504 мс.
Библиотека кодирования : LAME
Язык : =
Аудио #2
Идентификатор : 2
Формат : MPEG Audio
Версия формата : Version 1
Профиль формата : Layer 3
Режим : Joint stereo
Расширение режима : MS Stereo
Идентификатор кодека : 55
Идентификатор кодека/Подсказка : MP3
Продолжительность : 59 м.
Вид битрейта : Постоянный
Битрейт : 128 Кбит/сек
Каналы : 2 канала
Частота : 48,0 КГц
Метод сжатия : С потерями
Размер потока : 54,4 Мбайт (8%)
Выравнивание : Соединение по промежуткам
Продолжительность промежутка : 40 мс. (1,00 видеокадр)
Время предзагрузки промежутка : 504 мс.
-- Часть 3. От Индии до Шри-Ланки. От Узбекистана до Сирии
India to Srilanka. Uzbekistan to Syria
От Индии до Шри-Ланки
Чудо света 33 - Богиня Дурга / Durga
Чудо света 34 - Сигирия / Sigiriya
Чудо света 35 - Гигантское изваяние Будды в Полоннарува / Giant Buddha Of Polonnaruwa
Чудо света 36 - Зуб Будды / Buddha's Tooth
Чудо света 37 - Специи Кочина / Spices Of Cochin
Чудо света 38 - Храм Минакши / Meenakshi Temple
Чудо света 39 - Обсерватория Жантар Мантар / Jantar Mantar Observatory
Чудо света 40 - Тадж Махал / The Taj Mahal
В этот раз мы отправляемся в один из красивейших регионов мира - Южную Азию, где нам представится возможность познакомиться с необычными взаимоотношениями людей и богов и в полной мере насладиться красотой историко-культурных памятников. В этой серии вы побываете: в удивительном городе Сигирия; в древней столице Шри-Ланки Полоннарува, в которой находится гигантское изваяние Будды; а так же узнаете о Святыне, обладатели которой в течении семисот лет удерживали свое право на трон. Ну , конечно, нельзя обойти вниманием земное воплощение небесного рая - Тадж Махал.
От Узбекистана до Сирии
Чудо света 41 - Изразцовая плитка Самарканда / The Tiles Of Samarkand
Чудо света 42 - Торговые ряды Бухары / The Trading Domes Of Bukhara
Чудо света 43 - Храм Огня в Баку / The Fire Temple Of Baku
Чудо света 44 - Мечеть шаха / The Imam Mosque
Чудо света 45 - Персидский ковер / The Persian Carpet
Чудо света 46 - Барельефы Бизитуна / The Reliefs Of Bisitun
Чудо света 47 - Персеполь / Persepolis
Чудо света 48 - Рыночные улицы Эль-Хомиди / El-Hamidiyeh Souk
Наш путь лежит в колыбель цивилизации - страны Малой Азии. Сегодня эти государства принадлежат к исламской культуре, в рамках которой волей Аллаха поощрялась торговая деятельность. Путешествие не будет легким. Вы посетите удаленные уголки центрально-азиатских государств в поисках памятников их истории. Вам предстоит знакомство с традициями удивительных и плохо изученных цивилизаций прошлого. Вас ждут очередные чудеса Востока: изразцовая плитка Самарканда, торговые ряды Бухары, Мечеть Шаха, персидский ковер и многие другие.
От Индии до Шри-ЛанкиОбщее
Формат : AVI
Формат/Информация : Audio Video Interleave
Размер файла : 698 Мбайт
Продолжительность : 59 м.
Общий поток : 1647 Кбит/сек
Название фильма : India to Sri Lanka
Часть/Положение : 5
Режиссёр : Dan Cruickshank
Запись произвёл : Dan Cruickshank
Продюсер : Basil Comely
Кодирование произвёл : DarkGhost
Жанр : документальный
Дата записи : 2005
Программа кодирования : VirtualDubMod 1.5.10.2 (build 2540/release) VirtualDubMod build 2540/release
Формат оригинала/Имя : фильм
Правообладатель : BBC
Видео
Идентификатор : 0
Формат : MPEG-4 Visual
Профиль формата : Advanced [email protected]
Параметр BVOP формата : 2
Параметр QPel формата : Нет
Параметр GMC формата : Без точки перехода
Параметр матрицы формата : Default (H.263)
Режим смешивания : Сжатый битовый поток
Идентификатор кодека : XVID
Идентификатор кодека/Подсказка : XviD
Продолжительность : 59 м.
Битрейт : 1377 Кбит/сек
Ширина : 672 пикселя
Высота : 368 пикселей
Соотношение сторон : 16:9
Частота кадров : 25,000 кадров/сек
Цветовое пространство : YUV
Субдискретизация насыщенности : 4:2:0
Битовая глубина : 8 бит
Тип развёртки : Прогрессивная
Метод сжатия : С потерями
Бит/(Пиксели*Кадры) : 0.223
Размер потока : 583 Мбайт (84%)
Библиотека кодирования : XviD 1.1.2 (UTC 2006-11-01)
Аудио #1
Идентификатор : 1
Формат : MPEG Audio
Версия формата : Version 1
Профиль формата : Layer 3
Режим : Joint stereo
Идентификатор кодека : 55
Идентификатор кодека/Подсказка : MP3
Продолжительность : 59 м.
Вид битрейта : Постоянный
Битрейт : 128 Кбит/сек
Каналы : 2 канала
Частота : 48,0 КГц
Метод сжатия : С потерями
Размер потока : 54,2 Мбайт (8%)
Выравнивание : Соединение по промежуткам
Продолжительность промежутка : 40 мс. (1,00 видеокадр)
Время предзагрузки промежутка : 504 мс.
Язык : =
Аудио #2
Идентификатор : 2
Формат : MPEG Audio
Версия формата : Version 1
Профиль формата : Layer 3
Режим : Joint stereo
Идентификатор кодека : 55
Идентификатор кодека/Подсказка : MP3
Продолжительность : 59 м.
Вид битрейта : Постоянный
Битрейт : 128 Кбит/сек
Каналы : 2 канала
Частота : 48,0 КГц
Метод сжатия : С потерями
Размер потока : 54,2 Мбайт (8%)
Выравнивание : Соединение по промежуткам
Продолжительность промежутка : 40 мс. (1,00 видеокадр)
Время предзагрузки промежутка : 504 мс.
--От Узбекистана до СирииОбщее
Формат : AVI
Формат/Информация : Audio Video Interleave
Размер файла : 698 Мбайт
Продолжительность : 59 м.
Общий поток : 1645 Кбит/сек
Название фильма : Uzbekistan to Syria
Часть/Положение : 6
Режиссёр : Dan Cruickshank
Запись произвёл : Dan Cruickshank
Продюсер : Basil Comely
Кодирование произвёл : DarkGhost
Жанр : документальный
Дата записи : 2005
Программа кодирования : VirtualDubMod 1.5.10.2 (build 2540/release) VirtualDubMod build 2540/release
Формат оригинала/Имя : фильм
Правообладатель : BBC
Видео
Идентификатор : 0
Формат : MPEG-4 Visual
Профиль формата : Advanced [email protected]
Параметр BVOP формата : 2
Параметр QPel формата : Нет
Параметр GMC формата : Без точки перехода
Параметр матрицы формата : Default (H.263)
Режим смешивания : Сжатый битовый поток
Идентификатор кодека : XVID
Идентификатор кодека/Подсказка : XviD
Продолжительность : 59 м.
Битрейт : 1375 Кбит/сек
Ширина : 672 пикселя
Высота : 368 пикселей
Соотношение сторон : 16:9
Частота кадров : 25,000 кадров/сек
Цветовое пространство : YUV
Субдискретизация насыщенности : 4:2:0
Битовая глубина : 8 бит
Тип развёртки : Прогрессивная
Метод сжатия : С потерями
Бит/(Пиксели*Кадры) : 0.222
Размер потока : 583 Мбайт (84%)
Библиотека кодирования : XviD 1.1.2 (UTC 2006-11-01)
Аудио #1
Идентификатор : 1
Формат : MPEG Audio
Версия формата : Version 1
Профиль формата : Layer 3
Режим : Joint stereo
Расширение режима : MS Stereo
Идентификатор кодека : 55
Идентификатор кодека/Подсказка : MP3
Продолжительность : 59 м.
Вид битрейта : Постоянный
Битрейт : 128 Кбит/сек
Каналы : 2 канала
Частота : 48,0 КГц
Метод сжатия : С потерями
Размер потока : 54,2 Мбайт (8%)
Выравнивание : Соединение по промежуткам
Продолжительность промежутка : 40 мс. (1,00 видеокадр)
Время предзагрузки промежутка : 504 мс.
Библиотека кодирования : LAME
Язык : =
Аудио #2
Идентификатор : 2
Формат : MPEG Audio
Версия формата : Version 1
Профиль формата : Layer 3
Режим : Joint stereo
Расширение режима : MS Stereo
Идентификатор кодека : 55
Идентификатор кодека/Подсказка : MP3
Продолжительность : 59 м.
Вид битрейта : Постоянный
Битрейт : 128 Кбит/сек
Каналы : 2 канала
Частота : 48,0 КГц
Метод сжатия : С потерями
Размер потока : 54,3 Мбайт (8%)
Выравнивание : Соединение по промежуткам
Продолжительность промежутка : 40 мс. (1,00 видеокадр)
Время предзагрузки промежутка : 504 мс.
-- Часть 4. От Иордании до Эфиопии. От Мали до Египта
Jordan to Ethiopia. Mali to Egypt
От Иордании до Эфиопии
Чудо света 49 - Петра / Petra
Чудо света 50 - Мозаичное панно Святой Земли / Holy Land Mosaic
Чудо света 51 - Храмовая гора / Temple Mount
Чудо света 52 - Стеллы Аксума / Axum Stelae
Чудо света 53 - Чудо Марии / The Miracle Of Mary
Чудо света 54 - Скальные церкви Лалибелы / The Rock Churches Of Lalibela
Чудо света 55 - Крест Лалибелы / The Lalibela Cross
Нам предстоит отправиться в страны, считающиеся святыми местами для многих верующих, чтобы осознать, чего может достигнуть красота в сердцах людей. Мы посетим одно из самых романтичных мест на Земле, скрытое от глаз непосвященных в пустыне Эфиопии, увидим древний город Петра в Иордании и мозаичное панно Святой земли, посетим Храмовую гору в Иерусалиме и познакомимся с книгой "Чудо Марии", которой более полутора тысяч лет.
От Мали до Египта
Чудо света 56 - Мечеть Джэне / Djenne Mosque
Чудо света 57 - Наскальная живопись догонов / Dogon Rock Paintings
Чудо света 58 - Маски догонов / Dogon Mask
Чудо света 59 - Лептис Магна / Leptis Magna
Чудо света 60 - Хранилище берберов / Berber Granary
Чудо света 61 - Пирамида Хеопса / The Great Pyramid
Чудо света 62 - Маска Тутанхамона / Tutankhamen's Mask
Чудо света 63 - Храм Эдфу / Edfy Temple
Чудо света 64 - Гробница Нефертити / Nefertari's Tomb
Добро пожаловать в Африку - самый обманчивый и завораживающий континент. Здесь Вы познакомитесь с древнейшими традициями, увидите произведения искусства в их первозданной красоте. Вас ждут загадки самых великих цивилизаций мира: потерянный римский город в Ливии, наскальная живопись Догон, Пирамида Хеопса, маска Тутанхамона и многое другое.
От Иордании до ЭфиопииОбщее
Формат : AVI
Формат/Информация : Audio Video Interleave
Размер файла : 698 Мбайт
Продолжительность : 59 м.
Общий поток : 1648 Кбит/сек
Название фильма : Jordan to Ethiopia
Название фильма/Ссылка : www.senatorinfo.com
Часть/Положение : 7
Режиссёр : Dan Cruickshank
Запись произвёл : Dan Cruickshank
Продюсер : Basil Comely
Кодирование произвёл : DarkGhost
Жанр : документальный
Дата записи : 2005
Программа кодирования : VirtualDubMod 1.5.10.2 (build 2540/release) VirtualDubMod build 2540/release
Формат оригинала/Имя : фильм
Правообладатель : BBC
Видео
Идентификатор : 0
Формат : MPEG-4 Visual
Профиль формата : Advanced [email protected]
Параметр BVOP формата : 2
Параметр QPel формата : Нет
Параметр GMC формата : Без точки перехода
Параметр матрицы формата : Default (H.263)
Режим смешивания : Сжатый битовый поток
Идентификатор кодека : XVID
Идентификатор кодека/Подсказка : XviD
Продолжительность : 59 м.
Битрейт : 1378 Кбит/сек
Ширина : 672 пикселя
Высота : 368 пикселей
Соотношение сторон : 16:9
Частота кадров : 25,000 кадров/сек
Цветовое пространство : YUV
Субдискретизация насыщенности : 4:2:0
Битовая глубина : 8 бит
Тип развёртки : Прогрессивная
Метод сжатия : С потерями
Бит/(Пиксели*Кадры) : 0.223
Размер потока : 583 Мбайт (84%)
Библиотека кодирования : XviD 1.1.2 (UTC 2006-11-01)
Аудио #1
Идентификатор : 1
Формат : MPEG Audio
Версия формата : Version 1
Профиль формата : Layer 3
Режим : Joint stereo
Расширение режима : MS Stereo
Идентификатор кодека : 55
Идентификатор кодека/Подсказка : MP3
Продолжительность : 59 м.
Вид битрейта : Постоянный
Битрейт : 128 Кбит/сек
Каналы : 2 канала
Частота : 48,0 КГц
Метод сжатия : С потерями
Размер потока : 54,2 Мбайт (8%)
Выравнивание : Соединение по промежуткам
Продолжительность промежутка : 40 мс. (1,00 видеокадр)
Время предзагрузки промежутка : 504 мс.
Язык : =
Аудио #2
Идентификатор : 2
Формат : MPEG Audio
Версия формата : Version 1
Профиль формата : Layer 3
Режим : Joint stereo
Расширение режима : MS Stereo
Идентификатор кодека : 55
Идентификатор кодека/Подсказка : MP3
Продолжительность : 59 м.
Вид битрейта : Постоянный
Битрейт : 128 Кбит/сек
Каналы : 2 канала
Частота : 48,0 КГц
Метод сжатия : С потерями
Размер потока : 54,2 Мбайт (8%)
Выравнивание : Соединение по промежуткам
Продолжительность промежутка : 40 мс. (1,00 видеокадр)
Время предзагрузки промежутка : 504 мс.
--От Мали до ЕгиптаОбщее
Формат : AVI
Формат/Информация : Audio Video Interleave
Размер файла : 698 Мбайт
Продолжительность : 59 м.
Общий поток : 1649 Кбит/сек
Название фильма : Mail to Egypt
Название фильма/Ссылка : www.senatorinfo.com
Часть/Положение : 8
Режиссёр : Dan Cruickshank
Запись произвёл : Dan Cruickshank
Продюсер : Basil Comely
Кодирование произвёл : DarkGhost
Жанр : документальный
Дата записи : 2005
Программа кодирования : VirtualDubMod 1.5.10.2 (build 2540/release) VirtualDubMod build 2540/release
Формат оригинала/Имя : фильм
Правообладатель : BBC
Видео
Идентификатор : 0
Формат : MPEG-4 Visual
Профиль формата : Advanced [email protected]
Параметр BVOP формата : 2
Параметр QPel формата : Нет
Параметр GMC формата : Без точки перехода
Параметр матрицы формата : Default (H.263)
Режим смешивания : Сжатый битовый поток
Идентификатор кодека : XVID
Идентификатор кодека/Подсказка : XviD
Продолжительность : 59 м.
Битрейт : 1379 Кбит/сек
Ширина : 672 пикселя
Высота : 368 пикселей
Соотношение сторон : 16:9
Частота кадров : 25,000 кадров/сек
Цветовое пространство : YUV
Субдискретизация насыщенности : 4:2:0
Битовая глубина : 8 бит
Тип развёртки : Прогрессивная
Метод сжатия : С потерями
Бит/(Пиксели*Кадры) : 0.223
Размер потока : 584 Мбайт (84%)
Библиотека кодирования : XviD 1.1.2 (UTC 2006-11-01)
Аудио #1
Идентификатор : 1
Формат : MPEG Audio
Версия формата : Version 1
Профиль формата : Layer 3
Режим : Joint stereo
Расширение режима : MS Stereo
Идентификатор кодека : 55
Идентификатор кодека/Подсказка : MP3
Продолжительность : 59 м.
Вид битрейта : Постоянный
Битрейт : 128 Кбит/сек
Каналы : 2 канала
Частота : 48,0 КГц
Метод сжатия : С потерями
Размер потока : 54,1 Мбайт (8%)
Выравнивание : Соединение по промежуткам
Продолжительность промежутка : 40 мс. (1,00 видеокадр)
Время предзагрузки промежутка : 504 мс.
Библиотека кодирования : LAME
Язык : =
Аудио #2
Идентификатор : 2
Формат : MPEG Audio
Версия формата : Version 1
Профиль формата : Layer 3
Режим : Joint stereo
Расширение режима : MS Stereo
Идентификатор кодека : 55
Идентификатор кодека/Подсказка : MP3
Продолжительность : 59 м.
Вид битрейта : Постоянный
Битрейт : 128 Кбит/сек
Каналы : 2 канала
Частота : 48,0 КГц
Метод сжатия : С потерями
Размер потока : 54,2 Мбайт (8%)
Выравнивание : Соединение по промежуткам
Продолжительность промежутка : 40 мс. (1,00 видеокадр)
Время предзагрузки промежутка : 504 мс.
-- Часть 5. От Турции до Германии. От Боснии до Франции и возвращение домой
Tuykey to Germany. Bosnia to France and home
От Турции до Германии
Чудо света 65 - Подземный город Деринкую
Чудо света 66 - Софийский собор
Чудо света 67 - Московское метро
Чудо света 68 - Соловецкий монастырь
Чудо света 69 - Летний дворец Петра I
Чудо света 70 - Соляные копи Величка
Чудо света 71 - Фольксваген Жук
Чудо света 72 - Стул Брно в Баухаузе
Наше путешествие продолжается на пороге Европы и Азии, где Восток встречается с Западом в фейерверке культур и религий. Здесь нас ждут сокровища, сокрытые под землей и в суете больших городов. Они - результат попытки человека создать идеальный мир. Вы сможете увидеть подземный город Деринкюю и одно из самых величественных зданий, которое оказало огромное влияние на всю европейскую архитектуру - Айя София. Мы обязательно заглянем в Россию, где тоже немало чудес: московское метро, домик Петра Великого, Соловецкий монастырь.
От Боснии до Франции и возвращение домой
Чудо света 73 - Мостарский мост
Чудо света 74 - Парфенон
Чудо света 75 - Пантеон
Чудо света 76 - Часовня Медичи
Чудо света 77 - Гранд-канал
Чудо света 78 - Герника
Чудо света 79 - Альгамбра
Чудо света 80 - Шартрский собор
Наше путешествие подходит к концу. Мы возвращаемся в Европу, богатейшую удивительными памятниками истории и после всего увиденного на многое здесь смотришь немного другими глазами, и от этого еще больше захватывает дух. Нас ждет югославский Мостарский мост, греческий Храм Парфенон, Большой канал в Венеции, римский храм Пантеон, Часовня Медичи, картина Пикассо "Герника" и красивейший готический Собор в Шартре.
От Турции до ГерманииОбщее
Формат : AVI
Формат/Информация : Audio Video Interleave
Размер файла : 698 Мбайт
Продолжительность : 59 м.
Общий поток : 1653 Кбит/сек
Название фильма : Turkey to Germany
Название фильма/Ссылка : www.senatorinfo.com
Часть/Положение : 9
Режиссёр : Dan Cruickshank
Запись произвёл : Dan Cruickshank
Продюсер : Basil Comely
Кодирование произвёл : DarkGhost
Жанр : документальный
Дата записи : 2005
Программа кодирования : VirtualDubMod 1.5.10.2 (build 2540/release) VirtualDubMod build 2540/release
Формат оригинала/Имя : фильм
Правообладатель : BBC
Видео
Идентификатор : 0
Формат : MPEG-4 Visual
Профиль формата : Advanced [email protected]
Параметр BVOP формата : 2
Параметр QPel формата : Нет
Параметр GMC формата : Без точки перехода
Параметр матрицы формата : Default (H.263)
Режим смешивания : Сжатый битовый поток
Идентификатор кодека : XVID
Идентификатор кодека/Подсказка : XviD
Продолжительность : 59 м.
Битрейт : 1382 Кбит/сек
Ширина : 672 пикселя
Высота : 368 пикселей
Соотношение сторон : 16:9
Частота кадров : 25,000 кадров/сек
Цветовое пространство : YUV
Субдискретизация насыщенности : 4:2:0
Битовая глубина : 8 бит
Тип развёртки : Прогрессивная
Метод сжатия : С потерями
Бит/(Пиксели*Кадры) : 0.224
Размер потока : 584 Мбайт (84%)
Библиотека кодирования : XviD 1.1.2 (UTC 2006-11-01)
Аудио #1
Идентификатор : 1
Формат : MPEG Audio
Версия формата : Version 1
Профиль формата : Layer 3
Режим : Joint stereo
Расширение режима : MS Stereo
Идентификатор кодека : 55
Идентификатор кодека/Подсказка : MP3
Продолжительность : 59 м.
Вид битрейта : Постоянный
Битрейт : 128 Кбит/сек
Каналы : 2 канала
Частота : 48,0 КГц
Метод сжатия : С потерями
Размер потока : 54,1 Мбайт (8%)
Выравнивание : Соединение по промежуткам
Продолжительность промежутка : 40 мс. (1,00 видеокадр)
Время предзагрузки промежутка : 504 мс.
Библиотека кодирования : LAME3.90
Язык : =
Аудио #2
Идентификатор : 2
Формат : MPEG Audio
Версия формата : Version 1
Профиль формата : Layer 3
Режим : Joint stereo
Расширение режима : MS Stereo
Идентификатор кодека : 55
Идентификатор кодека/Подсказка : MP3
Продолжительность : 59 м.
Вид битрейта : Постоянный
Битрейт : 128 Кбит/сек
Каналы : 2 канала
Частота : 48,0 КГц
Метод сжатия : С потерями
Задержка видео : 432 мс.
Размер потока : 54,0 Мбайт (8%)
Выравнивание : Соединение по промежуткам
Продолжительность промежутка : 40 мс. (1,00 видеокадр)
Время предзагрузки промежутка : 504 мс.
--От Боснии до Франции и возвращение домойОбщее
Формат : AVI
Формат/Информация : Audio Video Interleave
Размер файла : 698 Мбайт
Продолжительность : 59 м.
Общий поток : 1649 Кбит/сек
Название фильма : Bosnia to France and Home
Название фильма/Ссылка : www.senatorinfo.com
Часть/Положение : 10
Режиссёр : Dan Cruickshank
Запись произвёл : Dan Cruickshank
Продюсер : Basil Comely
Кодирование произвёл : DarkGhost
Жанр : документальный
Дата записи : 2005
Программа кодирования : VirtualDubMod 1.5.10.2 (build 2540/release) VirtualDubMod build 2540/release
Формат оригинала/Имя : фильм
Правообладатель : BBC
Видео
Идентификатор : 0
Формат : MPEG-4 Visual
Профиль формата : Advanced [email protected]
Параметр BVOP формата : 2
Параметр QPel формата : Нет
Параметр GMC формата : Без точки перехода
Параметр матрицы формата : Default (H.263)
Режим смешивания : Сжатый битовый поток
Идентификатор кодека : XVID
Идентификатор кодека/Подсказка : XviD
Продолжительность : 59 м.
Битрейт : 1378 Кбит/сек
Ширина : 672 пикселя
Высота : 368 пикселей
Соотношение сторон : 16:9
Частота кадров : 25,000 кадров/сек
Цветовое пространство : YUV
Субдискретизация насыщенности : 4:2:0
Битовая глубина : 8 бит
Тип развёртки : Прогрессивная
Метод сжатия : С потерями
Бит/(Пиксели*Кадры) : 0.223
Размер потока : 583 Мбайт (84%)
Библиотека кодирования : XviD 1.1.2 (UTC 2006-11-01)
Аудио #1
Идентификатор : 1
Формат : MPEG Audio
Версия формата : Version 1
Профиль формата : Layer 3
Режим : Joint stereo
Расширение режима : MS Stereo
Идентификатор кодека : 55
Идентификатор кодека/Подсказка : MP3
Продолжительность : 59 м.
Вид битрейта : Постоянный
Битрейт : 128 Кбит/сек
Каналы : 2 канала
Частота : 48,0 КГц
Метод сжатия : С потерями
Размер потока : 54,2 Мбайт (8%)
Выравнивание : Соединение по промежуткам
Продолжительность промежутка : 40 мс. (1,00 видеокадр)
Время предзагрузки промежутка : 504 мс.
Язык : =
Аудио #2
Идентификатор : 2
Формат : MPEG Audio
Версия формата : Version 1
Профиль формата : Layer 3
Режим : Joint stereo
Расширение режима : MS Stereo
Идентификатор кодека : 55
Идентификатор кодека/Подсказка : MP3
Продолжительность : 59 м.
Вид битрейта : Постоянный
Битрейт : 128 Кбит/сек
Каналы : 2 канала
Частота : 48,0 КГц
Метод сжатия : С потерями
Размер потока : 54,2 Мбайт (8%)
Выравнивание : Соединение по промежуткам
Продолжительность промежутка : 40 мс. (1,00 видеокадр)
Время предзагрузки промежутка : 504 мс.
Download / Скачать

Хотите скачать бесплатно? Зарегистрируйтесь на сайте (ссылка на регистрацию). Pirat.ca - самый быстрый торрент трекер в рунете!

Как скачивать  ·   Что такое торрент  ·   Рейтинг и ограничения



Последний раз редактировалось: UcrusPazzo (2013-09-18 23:51), всего редактировалось 5 раз(а)

Степаныч

864

Пост 12-Дек-2011 20:05 (спустя 1 день 6 часов)

[Q] 

Спасибо за очень интересную раздачу

_________________
орфография как кунг-фу, истинный мастер не использует без надобности
[Профиль]  [ЛС] 

руслан84

Морской Волк

Пост 26-Янв-2012 20:47 (спустя 1 месяц 14 дней)

[Q] 

Очень интересно благодарю

_________________
С уважением .
[Профиль]  [ЛС] 

Vorontsova.Olha

Морской Волк

Пост 20-Май-2012 11:28 (спустя 3 месяца 24 дня)

[Q] 

Посмотрю с удовольствием!

_________________
[Профиль]  [ЛС] 

Adeges

Штурман

Пост 21-Фев-2013 23:57 (спустя 9 месяцев 1 день)

[Q] 

[Профиль]  [ЛС] 

MihaLexx

Морской Волк

Пост 04-Апр-2013 10:56 (спустя 1 месяц 10 дней)

[Q] 

с пивасиком будет в самый раз посмотреть
[Профиль]  [ЛС] 

Tanya DL Seed

Морской Волк

Пост 01-Сен-2013 15:25 (спустя 4 месяца 27 дней)

[Q] 

почему не кто не раздаёт????
[Профиль]  [ЛС] 

UcrusPazzo ®

7670

Пост 02-Сен-2013 10:42 (спустя 19 часов)

[Q] 

416079почему не кто не раздаёт????
Как это никто не раздает! Я на раздаче всегда, кроме глубокой ночи.
Качайте на здоровье.

_________________
[Профиль]  [ЛС] 
Показать сообщения:    
Ответить на тему

Текущее время: Сегодня 08:11

Часовой пояс: GMT + 4



Вы не можете начинать темы
Вы не можете отвечать на сообщения
Вы не можете редактировать свои сообщения
Вы не можете удалять свои сообщения
Вы не можете голосовать в опросах
Вы не можете прикреплять файлы к сообщениям
Вы не можете скачивать файлы

▼ Вниз