ML
     
  Уважаемый Гость!
Вы можете поддержать проект и зарегистрироваться у наших партнеров - онлайн-стратегия MyLands. При регистрации в игре Вы получите код, который сможете активировать после регистрации на pirat.ca и получить 1000 дублонов.

Ваш код:
6f9ab67d502902cc72a06c406977ddb589b7f39d
 
     

BBC: Утраченные Боги Острова Пасхи / Потерянные божества острова Пасхи / BBC: The Lost Gods of Easter Island (Дэвид Аттенборо / David Attenborough, Кейт Брум / Kate Broome) [2000 г., Документальный, TVRip] VO

Ответить на тему
 
Автор
Сообщение

Пост 19-Сен-2013 00:39

[Q] 

UcrusPazzo

BBC: Утраченные Боги Острова Пасхи / Потерянные божества острова Пасхи /
BBC: The Lost Gods of Easter Island
-Производство: Великобритания, British Broadcasting Corporation (BBC)
Жанр: Документальный
Год выпуска: 2000 г.
Продолжительность: 00:49:02
Мировая премьера: 24 апреля 2000
Дата выхода DVD: 30 августа 2012, «Союз-Видео»
Перевод: Профессиональный (одноголосый, закадровый)-Режиссер: Дэвид Аттенборо / David Attenborough, Кейт Брум / Kate Broome-В ролях: Дэвид Аттенборо
(О нем: http://ru.wikipedia.org/wiki/Аттенборо,_Дэвид
http://www.kinopoisk.ru/level/4/people/434946/)-Описание: Вырезанная из дерева, гротескная голова, соединенная с телом, грубо растянутым и худым как палка». Когда Дэвид Аттенборо увидел эту удивительную фигурку на аукционе, он сразу понял, что она представляет большую ценность, чем полагали аукционисты. Он купил фигурку и решил узнать о ней все, что возможно. Его расследование охватило весь мир. от России до Австралии, от Англии к Острову Пасхи, где скрывался ключ к разгадке тайны фигурки. В отличие от обычной роли исследователя и наблюдателя за дикой природой, Дэвид становится историческим сыщиком и идет по следу маленькой резной фигурки с уникальным прошлым.-Качество видео: TVRip
Контейнер: AVI
Видео кодек: XviD
Аудио кодек: MP3
Видео: 704x560 (1.26:1), 25 fps, XviD build 47 ~1584 kbps avg, 0.16 bit/pixel
Аудио: 48 kHz, MPEG Layer 3, 2 ch, ~128.00 kbps avg
Cубтитры: отсутствуют
Общее
Формат : AVI
Формат/Информация : Audio Video Interleave
Размер файла : 604 Мбайт
Продолжительность : 49 м.
Общий поток : 1723 Кбит/сек
Библиотека кодирования : Boilsoft Joiner build 2411/release
Видео
Идентификатор : 0
Формат : MPEG-4 Visual
Профиль формата : Advanced [email protected]
Параметр BVOP формата : 2
Параметр QPel формата : Нет
Параметр GMC формата : Без точки перехода
Параметр матрицы формата : Default (H.263)
Идентификатор кодека : XVID
Идентификатор кодека/Подсказка : XviD
Продолжительность : 49 м.
Битрейт : 1585 Кбит/сек
Ширина : 704 пикселя
Высота : 560 пикселей
Соотношение сторон : 5:4
Частота кадров : 25,000 кадров/сек
Цветовое пространство : YUV
Субдискретизация насыщенности : 4:2:0
Битовая глубина : 8 бит
Тип развёртки : Прогрессивная
Метод сжатия : С потерями
Бит/(Пиксели*Кадры) : 0.161
Размер потока : 556 Мбайт (92%)
Библиотека кодирования : XviD 1.2.0.dev47 (UTC 2006-11-01)
Аудио
Идентификатор : 1
Формат : MPEG Audio
Версия формата : Version 1
Профиль формата : Layer 3
Идентификатор кодека : 55
Идентификатор кодека/Подсказка : MP3
Продолжительность : 49 м.
Вид битрейта : Постоянный
Битрейт : 128 Кбит/сек
Каналы : 2 канала
Частота : 48,0 КГц
Метод сжатия : С потерями
Размер потока : 44,9 Мбайт (7%)
Выравнивание : Соединение по промежуткам
Продолжительность промежутка : 40 мс. (1,00 видеокадр)
Время предзагрузки промежутка : 480 мс.
Библиотека кодирования : LAME3.97
Настройки программы : -m s -V 4 -q 2 -lowpass 17 -b 128
Download / Скачать

Хотите скачать бесплатно? Зарегистрируйтесь на сайте (ссылка на регистрацию). Pirat.ca - самый быстрый торрент трекер в рунете!

Как скачивать  ·   Что такое торрент  ·   Рейтинг и ограничения

Показать сообщения:    
Ответить на тему

Текущее время: Сегодня 16:31

Часовой пояс: GMT + 4



Вы не можете начинать темы
Вы не можете отвечать на сообщения
Вы не можете редактировать свои сообщения
Вы не можете удалять свои сообщения
Вы не можете голосовать в опросах
Вы не можете прикреплять файлы к сообщениям
Вы не можете скачивать файлы

▼ Вниз