ML
     
  Уважаемый Гость!
Вы можете поддержать проект и зарегистрироваться у наших партнеров - онлайн-стратегия MyLands. При регистрации в игре Вы получите код, который сможете активировать после регистрации на pirat.ca и получить 1000 дублонов.

Ваш код:
ea554e7ed3eacceeae87a8b30a9de3f086c18a84
 
     

BBC: Дикая Аравия / BBC: Wild Arabia (Сезон: 1 Серии: 1-3) (Чадден Хантер) [2013 г., документальный, HDTVRip] VO

Ответить на тему
 
Автор
Сообщение

Пост 13-Ноя-2013 02:36

[Q] 

Azat17

Шкипер

-BBC: Дикая Аравия - BBC: Wild Arabia-- Производство: Великобритания, BBC
Жанр: документальный
Год выпуска: 2013 г.
Продолжительность: 3 x ~00:58:00
Перевод: Любительский (одноголосый, закадровый)
Автор(ы) перевода: Ю. Онищенко
Режиссер: Чадден Хантер-В ролях: Александр Сиддиг, Сью Гибсон, Чадден Хантер, Матео Уиллис-Описание: На протяжении многих столетий таинственные, но запретные земли пленяли наше воображение. И вот впервые нам удастся получше узнать родину мифов и легенд. Мы увидим мир контрастов и не предсказуемых сюрпризов. Это место, где древняя история вплетена в ткань современности. И эти же земли приходятся родным домом для уникальных обитателей животного царства. Это рассказ о животных и людях населяющих Аравию.-Качество видео: HDTVRip
Контейнер: AVI
Стандарт разрешения: 720p
Видео кодек: XviD
Аудио кодек: MP3
Видео: 720x400 (1.80:1), 25 fps, XviD build 50 ~1795 kbps avg, 0.25 bit/pixel
Аудио: 48 kHz, MPEG Layer 3, 2 ch, ~192.00 kbps avg
Cубтитры: отсутствуют
Формат субтитров: softsub (SRT)
Format : AVI
Format/Info : Audio Video Interleave
File size : 830 MiB
Duration : 58mn 7s
Overall bit rate : 1 997 Kbps
Writing application : VirtualDubMod 1.5.10.3 | www.virtualdub-fr.org || (build 2550/release)
Writing library : VirtualDubMod build 2550/release
Video #0
ID : 0
Format : MPEG-4 Visual
Format profile : Advanced [email protected]
Format settings, BVOP : 1
Format settings, QPel : No
Format settings, GMC : No warppoints
Format settings, Matrix : Default (H.263)
Codec ID : XVID
Codec ID/Hint : XviD
Duration : 58mn 7s
Bit rate : 1 796 Kbps
Width : 720 pixels
Height : 400 pixels
Display aspect ratio : 16:9
Frame rate : 25.000 fps
Color space : YUV
Chroma subsampling : 4:2:0
Bit depth : 8 bits
Scan type : Progressive
Compression mode : Lossy
Bits/(Pixel*Frame) : 0.249
Stream size : 746 MiB (90%)
Writing library : XviD 1.2.1 (UTC 2008-12-04)
Audio #1
ID : 1
Format : MPEG Audio
Format version : Version 1
Format profile : Layer 3
Codec ID : 55
Codec ID/Hint : MP3
Duration : 58mn 6s
Bit rate mode : Constant
Bit rate : 192 Kbps
Channel(s) : 2 channels
Sampling rate : 48.0 KHz
Compression mode : Lossy
Stream size : 79.8 MiB (10%)
Alignment : Aligned on interleaves
Interleave, duration : 40 ms (1.00 video frame)
Interleave, preload duration : 504 ms
Writing library : LAME3.99r
Encoding settings : -m s -V 4 -q 2 -lowpass 18.6 -b 192
Список серий:
1. Песок, Ветер и Звезды / Sand, Wind and Stars
2. Жемчужина Аравии / The Jewel of Arabia
3.Движущиеся пески / Shifting Sands
Download / Скачать

Хотите скачать бесплатно? Зарегистрируйтесь на сайте (ссылка на регистрацию). Pirat.ca - самый быстрый торрент трекер в рунете!

Как скачивать  ·   Что такое торрент  ·   Рейтинг и ограничения

UcrusPazzo

7670

Пост 13-Ноя-2013 10:14 (спустя 7 часов)

[Q] 

Azat17, не забывайте добавлять IMDb и Кинопоиск

_________________
[Профиль]  [ЛС] 

Begemot Ural

18

Пост 14-Апр-2014 22:36 (спустя 5 месяцев 1 день)

[Q] 





_________________
Aut Caesar, aut nihil
[Профиль]  [ЛС] 

Seva78

1517

Пост 15-Апр-2014 00:50 (спустя 2 часа 13 минут)

[Q] 

Begemot666, Сделайте пожалуйста только скрины нужно размера(720x400) исправлю,постер поправил.

_________________
[Профиль]  [ЛС] 

ANDOKU

Шкипер

Пост 19-Авг-2014 22:44 (спустя 4 месяца 4 дня)

[Q] 

Лови бочку
[Профиль]  [ЛС] 
Показать сообщения:    
Ответить на тему

Текущее время: Сегодня 12:10

Часовой пояс: GMT + 4



Вы не можете начинать темы
Вы не можете отвечать на сообщения
Вы не можете редактировать свои сообщения
Вы не можете удалять свои сообщения
Вы не можете голосовать в опросах
Вы не можете прикреплять файлы к сообщениям
Вы не можете скачивать файлы

▼ Вниз