ML
     
  Уважаемый Гость!
Вы можете поддержать проект и зарегистрироваться у наших партнеров - онлайн-стратегия MyLands. При регистрации в игре Вы получите код, который сможете активировать после регистрации на pirat.ca и получить 1000 дублонов.

Ваш код:
9cfe162481db953a6549f32179d7b3900b8b8643
 
     

BBC. Сокрытые миры / Hidden Kingdoms / Сезон: 1 / Серии: 3 из 3 [2014 г., Документальный, научно-познавательный, исследование, HDTVRip] VO (Владимир Курдов) + Original (Eng)

Ответить на тему
 
Автор
Сообщение

Пост 12-Фев-2014 20:33

[Q] 

kugesan

-BBC. Сокрытые миры
Hidden Kingdoms
-- Производство: Великобритания / Саймон Белл / British Broadcasting Corporation (BBC)
Жанр: Документальный, научно-познавательный, исследование
Год выпуска: 2014 г.
Продолжительность: 00:48:00
Релиз группы: NewStudio.TV
Перевод: Профессиональный (одноголосый, закадровый) [Владимир Курдов]
Текст читает: Стивен Фрай / Stephen Fry
Автор перевода: Владимир Курдов
Оригинальный аудиопоток: английский-В ролях: Зверушки-Описание: Новый инновационный сериал от мастеров жанра канала ВВС. На этот раз мы не просто станем свидетелями жизни животных, а перенесемся в мир миниатюры, где маленькие существа борются за жизнь наравне с большими и сильными обитателями фауны. Мы увидим, как они видят нас. Сможем заметить, как от движений маленьких животных шевелятся травинки. Уникальный спектр съемки позволит уловить самые незаметные движения. Мы узнаем мир их глазами, в полной мере ощутив себя гостями парка Юрского периода. Леса Борнео, пустыни Африки и Аризоны, мрачные леса Северной Америки и даже городские джунгли Токио и Рио! Они повсюду, они живут по своим законам, но настало время раскрыть большие тайны маленьких существ и еще раз восхититься уникальной и мудрой природой нашей планеты.-Качество видео: HDTVRip
Контейнер: AVI
Видео кодек: XviD
Аудио кодек: MP3
Видео: MPEG-4 Visual at 1304 Кбит/сек: 720 x 400 (1.800) at 25.000 fps, 0.18 Бит/Пиксели
Аудио Rus: MPEG Audio at 128 Кбит/сек: 2 канала, 48,0 КГц |NewStudio| (Владимир Курдов)
Аудио Eng: MPEG Audio at 128 Кбит/сек: 2 канала, 48,0 КГц |Original| (Стивен Фрай / Stephen Fry)
Cубтитры: отсутствуют
  • Под открытым небом / Under Open Skies
  • Таинственные леса / Secret Forests
  • Городские джунгли / Urban Jungles
Код:
Общее
Полное имя                               : E:\_Сериалы\Сокрытые миры\Hidden Kingdoms-1(NewStudio)\Hidden.Kingdoms.01.HDTVRip.NewStudio.TV.avi
Формат                                   : AVI
Формат/Информация                        : Audio Video Interleave
Размер файла                             : 549 Мбайт
Продолжительность                        : 48 м.
Общий поток                              : 1574 Кбит/сек
Программа кодирования                    : VirtualDubMod 1.5.10.2 (build 2540/release)
Библиотека кодирования                   : VirtualDubMod build 2540/release
Видео
Идентификатор                            : 0
Формат                                   : MPEG-4 Visual
Профиль формата                          : Advanced [email protected]
Параметр BVOP формата                    : 2
Параметр QPel формата                    : Нет
Параметр GMC формата                     : Без точки перехода
Параметр матрицы формата                 : Default (MPEG)
Идентификатор кодека                     : XVID
Идентификатор кодека/Подсказка           : XviD
Продолжительность                        : 48 м.
Битрейт                                  : 1304 Кбит/сек
Ширина                                   : 720 пикселей
Высота                                   : 400 пикселей
Соотношение сторон                       : 16:9
Частота кадров                           : 25,000 кадров/сек
Цветовое пространство                    : YUV
Субдискретизация насыщенности            : 4:2:0
Битовая глубина                          : 8 бит
Тип развёртки                            : Прогрессивная
Метод сжатия                             : С потерями
Бит/(Пиксели*Кадры)                      : 0.181
Размер потока                            : 455 Мбайт (83%)
Библиотека кодирования                   : XviD 64
Аудио #1
Идентификатор                            : 1
Формат                                   : MPEG Audio
Версия формата                           : Version 1
Профиль формата                          : Layer 3
Режим                                    : Joint stereo
Расширение режима                        : MS Stereo
Идентификатор кодека                     : 55
Идентификатор кодека/Подсказка           : MP3
Продолжительность                        : 48 м.
Вид битрейта                             : Постоянный
Битрейт                                  : 128 Кбит/сек
Каналы                                   : 2 канала
Частота                                  : 48,0 КГц
Метод сжатия                             : С потерями
Размер потока                            : 44,6 Мбайт (8%)
Выравнивание                             : Соединение по промежуткам
Продолжительность промежутка             : 40  мс. (1,00 видеокадр)
Время предзагрузки промежутка            : 504  мс.
Аудио #2
Идентификатор                            : 2
Формат                                   : MPEG Audio
Версия формата                           : Version 1
Профиль формата                          : Layer 3
Режим                                    : Joint stereo
Расширение режима                        : MS Stereo
Идентификатор кодека                     : 55
Идентификатор кодека/Подсказка           : MP3
Продолжительность                        : 48 м.
Вид битрейта                             : Постоянный
Битрейт                                  : 128 Кбит/сек
Каналы                                   : 2 канала
Частота                                  : 48,0 КГц
Метод сжатия                             : С потерями
Размер потока                            : 44,6 Мбайт (8%)
Выравнивание                             : Соединение по промежуткам
Продолжительность промежутка             : 40  мс. (1,00 видеокадр)
Время предзагрузки промежутка            : 504  мс.
Добавлена третья, заключительная, серия первого сезона
Download / Скачать

Хотите скачать бесплатно? Зарегистрируйтесь на сайте (ссылка на регистрацию). Pirat.ca - самый быстрый торрент трекер в рунете!

Как скачивать  ·   Что такое торрент  ·   Рейтинг и ограничения



Последний раз редактировалось: kugesan (2014-03-16 22:28), всего редактировалось 3 раз(а)

muz4in

Морской Волк

Пост 13-Фев-2014 20:46 (спустя 1 день)

[Q] 

а ну, дайте газку, товарищи скачавшие!!! Раздавать будем или как?
[Профиль]  [ЛС] 

kugesan ®

56676

Пост 17-Фев-2014 19:24 (спустя 3 дня)

[Q] 

Добавлена третья, заключительная, серия первого сезона

_________________

В мире две бесконечности: вселенная и человеческая глупость - Альберт Эйнштен
«Можно вытащить человека из грязи, но нельзя вытащить грязь из человека»!
[Профиль]  [ЛС] 

YBbI de FiiS

Корсар

Пост 17-Мар-2014 00:50 (спустя 27 дней)

[Q] 

Очень любопытно, еще бы MKV и вообще шикарно, благодарю!
[Профиль]  [ЛС] 

gonzo-fox

Морской Волк

Пост 17-Мар-2014 04:50 (спустя 3 часа)

[Q] 

спасибо...............

_________________
et teipsum salvum facies, ex inferno ...
Infernus - tantum verbo, multo magis veritas
Liberato tute me est

[Профиль]  [ЛС] 

ElSkorpio

16

Пост 12-Май-2014 20:15 (спустя 1 месяц 26 дней)

[Q] 

Кто здеся? Спасибо!!! занятно)

_________________
[Профиль]  [ЛС] 

Reborner

Юнга

Пост 23-Июн-2014 17:31 (спустя 1 месяц 10 дней)

[Q] 

Спасибо, заценим. Хотелось бы узнать, данная раздача будет вестись путем добавления новых сезонов?
[Профиль]  [ЛС] 

kugesan ®

56676

Пост 23-Июн-2014 17:32 (спустя 1 минута)

[Q] 

Reborner,
BBC. Сокрытые миры / Hidden Kingdoms / Сезон: 1 / Серии: 3 из 3

_________________

В мире две бесконечности: вселенная и человеческая глупость - Альберт Эйнштен
«Можно вытащить человека из грязи, но нельзя вытащить грязь из человека»!
[Профиль]  [ЛС] 

MIKE150

Штурман

Пост 23-Июн-2014 22:29 (спустя 4 часа)

[Q] 

Автору раздачи - Лови бочку
[Профиль]  [ЛС] 

ANDOKU

Шкипер

Пост 19-Авг-2014 22:43 (спустя 1 месяц 26 дней)

[Q] 

Спасибо!!!
[Профиль]  [ЛС] 

гришасемечкин

Корсар

1175

Пост 18-Дек-2014 21:31 (спустя 3 месяца 29 дней)

[Q] 

Качаю Раздавать будем или как?
[Профиль]  [ЛС] 
Показать сообщения:    
Ответить на тему

Текущее время: Сегодня 06:00

Часовой пояс: GMT + 4



Вы не можете начинать темы
Вы не можете отвечать на сообщения
Вы не можете редактировать свои сообщения
Вы не можете удалять свои сообщения
Вы не можете голосовать в опросах
Вы не можете прикреплять файлы к сообщениям
Вы не можете скачивать файлы

▼ Вниз