ML
     
  Уважаемый Гость!
Вы можете поддержать проект и зарегистрироваться у наших партнеров - онлайн-стратегия MyLands. При регистрации в игре Вы получите код, который сможете активировать после регистрации на pirat.ca и получить 1000 дублонов.

Ваш код:
193c38d0130f05c24de871678ea3ac181461757d
 
     

[BBC] Британские времена года / The Great British Year / Серии: 1-4 из 4 (James Brickell / Джеймс Брикл) [2013 г., Научно-популярный, живая природа, HDTVRip] VO (CSS) [+ Original (Eng)]

Ответить на тему
 
Автор
Сообщение

Пост 01-Апр-2014 03:15

[Q] 

UrbanVampire

Корсар

Британские времена года / The Great British Year
Серии: 1-4 из 4х
Производство: Великобритания, BBC
Жанр: Научно-популярный, живая природа
Год выпуска: 2013 г.
Продолжительность: 2 серии по ~00:59:00
Перевод: Любительский (одноголосый, закадровый)
Автор(ы) перевода: CSS
Оригинальный аудиопоток: английский
Субтитры: Русские, Английские
Продюсер: James Brickell / Джеймс Брикл
Ведущий: Joseph Fiennes / Джозеф Файнс
Описание: Великобритания - островное государство, со всех сторон окруженное морями и круглый год продуваемое ветрами.
Нигде в мире больше нет столь уникальных условий, порождающих непредсказуемую, постоянно меняющуюся погоду, неповторимые Британские времена года...
BBC давно известна своими замечательными документальными фильмами. Новый проект телеканала, состоящий из четырех эпизодов, расскажет о временах года в Великобритании и о влиянии погоды на растительный и животный мир. Уникальные кадры, снятые при помощи новейших технологий, позволят увидеть моменты, ранее недоступные зрителю.
Каждая серия содержит небольшой "фильм о фильме" - рассказ о том, как снимались те или иные эпизоды.
Раздача в HD (720p): [BBC] Британские времена года / The Great British Year [Серии 1-2 из 4х] (James Brickell / Джеймс Брикл) [2013, Научно-популярный, живая природа, HDTVRip 720p] VO (CSS) [+ Original (Eng) + SUB (RUS,ENG)]
1. Зима
Рассказ начинается с дня Нового Года. Британия в плену снега и льда. Замерзающая вода становится врагом всего живого. Различные существа справляются по-разному: белки используют хитрость, красные коршуны следуют за фермерскими плугами, чтобы извлечь червей из промерзшей земли. Но зима не продлится вечно, очень скоро зацветут подснежники, а на озере в Уилтшире чомги начнут свой танец...
2. Весна
Приход весны знаменует начало эпической гонки, в которой главное - правильный выбор времени. На деревьях набухают почки, по утрам слышны птичьи трели. Лазоревки строят гнезда, в океане морские коньки начинают брачный танец. Пока люди празднуют Пасху, самка горностая охотится на кроликов, чтобы накормить своих игривых детенышей. К началу лета птенцы кайр прыгают со скал. Молодняк готовится к самостоятельной жизни...
3. Лето
Пока люди отдыхают, у животных начинается всплеск активности. Больше Солнца означает больше пищи, многие животные специально прибывают на Британские острова, чтобы успеть к летнему изобилию. Чеглоки прилетают из Африки, чтобы застать бум насекомых, зрителю впервые дается возможность увидеть ночные проделки козодоя. Но долго ли продержится хорошая погода? Как только начнутся дожди, полчища голодных улиток будут атаковать сады.
4. Осень
Угасание Солнца снова меняет Британию, начинается время штормов и непредсказуемой погоды. Деревья сбрасывают листву, но прежде случается пышное красно-золотое празднество. Для животного мира сокращение длительности дня становится сигналом к началу подготовки к зиме. Кто-то запасает пищу, кто-то впадает в спячку. Для некоторых еще не закончилось время размножения. Пятнистые олени сражаются за самок, сёмга поднимается вверх по рекам, тюлени выкармливают потомство.

Качество видео: HDTVRip
Контейнер: AVI
Видео кодек: XviD
Аудио кодек: MP3
Видео: Xvid 720x400 25fps ~2300 Kbps ~0.33 bpf
Аудио RUS: MP3 48000Hz stereo 128kbps
Аудио ENG: MP3 48000Hz stereo 128kbps
Cубтитры RUS: Внешние, SoftSub (SRT) (В папке "SUB RUS")
Cубтитры ENG: Внешние, SoftSub (SRT) (В папке "SUB ENG")
General
Complete name : F:\_Мои рипы\Video - Фильмы\_Документальные\BBC\The.Great.British.Year.hdtvrip.rus.vo(css).eng\The.Great.British.Year.e01.of.04.hdtvrip.rus.vo(css).eng.avi
Format : AVI
Format/Info : Audio Video Interleave
File size : 1.09 GiB
Duration : 1h 0mn
Overall bit rate : 2 601 Kbps
Writing application : VirtualDubMod 1.5.10.2 (build 2540/release)
Writing library : VirtualDubMod build 2540/release
Video
ID : 0
Format : MPEG-4 Visual
Format profile : Advanced [email protected]
Format settings, BVOP : Yes
Format settings, QPel : No
Format settings, GMC : No warppoints
Format settings, Matrix : Default (H.263)
Codec ID : XVID
Codec ID/Hint : XviD
Duration : 1h 0mn
Bit rate : 2 335 Kbps
Width : 720 pixels
Height : 400 pixels
Display aspect ratio : 16:9
Frame rate : 25.000 fps
Color space : YUV
Chroma subsampling : 4:2:0
Bit depth : 8 bits
Scan type : Progressive
Compression mode : Lossy
Bits/(Pixel*Frame) : 0.324
Stream size : 1 002 MiB (90%)
Writing library : XviD 1.2.1 (UTC 2008-12-04)
Audio #1
ID : 1
Format : MPEG Audio
Format version : Version 1
Format profile : Layer 3
Mode : Joint stereo
Mode extension : MS Stereo
Codec ID : 55
Codec ID/Hint : MP3
Duration : 58mn 54s
Bit rate mode : Constant
Bit rate : 128 Kbps
Channel count : 2 channels
Sampling rate : 48.0 KHz
Compression mode : Lossy
Stream size : 53.9 MiB (5%)
Alignment : Aligned on interleaves
Interleave, duration : 41 ms (1.02 video frame)
Interleave, preload duration : 504 ms
Audio #2
ID : 2
Format : MPEG Audio
Format version : Version 1
Format profile : Layer 3
Mode : Joint stereo
Codec ID : 55
Codec ID/Hint : MP3
Duration : 58mn 54s
Bit rate mode : Constant
Bit rate : 128 Kbps
Channel count : 2 channels
Sampling rate : 48.0 KHz
Compression mode : Lossy
Stream size : 53.9 MiB (5%)
Alignment : Aligned on interleaves
Interleave, duration : 41 ms (1.02 video frame)
Interleave, preload duration : 504 ms
Перевод: Евгений "UrbanVampire" Шаров, Анна "САВА" Марченко
Редактура: Анна "САВА" Марченко
Научный консультант: Дарья "Данька" Губкина
Закадровый текст: Евгений "UrbanVampire" Шаров
Download / Скачать

Хотите скачать бесплатно? Зарегистрируйтесь на сайте (ссылка на регистрацию). Pirat.ca - самый быстрый торрент трекер в рунете!

Как скачивать  ·   Что такое торрент  ·   Рейтинг и ограничения



Последний раз редактировалось: UrbanVampire (2014-04-27 12:22), всего редактировалось 21 раз(а)

UrbanVampire ®

Корсар

1077

Пост 01-Апр-2014 09:00 (спустя 5 часов)

[Q] 

Прошу модератора рассмотреть вопрос о присвоении "золота".
[Профиль]  [ЛС] 

UcrusPazzo

7670

Пост 02-Апр-2014 00:24 (спустя 15 часов)

[Q] 

UrbanVampire, какие люди! И без охраны! Привет. )))

_________________
[Профиль]  [ЛС] 

UrbanVampire ®

Корсар

1077

Пост 19-Апр-2014 23:26 (спустя 17 дней)

[Q] 

исправлены несколько фраз в первой серии.
просьба перекачать торрент, приносим извинения за неудобство.
[Профиль]  [ЛС] 

yasheroff

Морской Волк

87

Пост 20-Апр-2014 00:12 (спустя 46 минут)

[Q] 

Спасибо! Буду ждать 4 серию)
[Профиль]  [ЛС] 

UrbanVampire ®

Корсар

1077

Пост 23-Апр-2014 14:04 (спустя 3 дня)

[Q] 

yasheroff, спасибо за внимание, четвертую постараемся к концу недели, а пока появилась раздача в HD 720p и с субтитрами:
[BBC] Британские времена года / The Great British Year [Серии 1-2 из 4х] (James Brickell / Джеймс Брикл) [2013, Научно-популярный, живая природа, HDTVRip 720p] VO (CSS) [+ Original (Eng) + SUB (RUS,ENG)]
[Профиль]  [ЛС] 

Begemot Ural

18

Пост 20-Июн-2014 10:15 (спустя 1 месяц 26 дней)

[Q] 

Странно, оказывается я случайно снес раздачу из клиента, а она и докачана не была. Скачаем. Поддержим.

_________________
Aut Caesar, aut nihil
[Профиль]  [ЛС] 
Показать сообщения:    
Ответить на тему

Текущее время: Сегодня 18:02

Часовой пояс: GMT + 4



Вы не можете начинать темы
Вы не можете отвечать на сообщения
Вы не можете редактировать свои сообщения
Вы не можете удалять свои сообщения
Вы не можете голосовать в опросах
Вы не можете прикреплять файлы к сообщениям
Вы не можете скачивать файлы

▼ Вниз