ML
     
  Уважаемый Гость!
Вы можете поддержать проект и зарегистрироваться у наших партнеров - онлайн-стратегия MyLands. При регистрации в игре Вы получите код, который сможете активировать после регистрации на pirat.ca и получить 1000 дублонов.

Ваш код:
a6d1ef7ff63e237add5a4c8b21d8aa937c5e9b4b
 
     

Мир после Стоунхенджа / The World After Stonehenge (2 серии) (Ариф Нурмухаммед / Arif Nurmukhammed) [2011 г., Документальный, SATRip] MVO

Ответить на тему
 
Автор
Сообщение

Пост 20-Янв-2012 18:51

[Q] 

me14

Мир после Стоунхенджа / The World After Stonehenge
Серии: 2 серии
Год выпуска: 2011
Производство: Великобритания, BBC
Жанр: Документальный
Продолжительность серии: 01:42:02
Перевод: Профессиональный (одноголосый, закадровый)
Субтитры: отсутствуют
Режиссер: Ариф Нурмухаммед / Arif Nurmukhammed
Описание: Ультрасовременное путешествие и открытие загадок - через мир доисторической Британии, от Железного века до века правления римлян. В фильме рассказано о последней научной работе детектива в экспериментальной археологии, популярного писателя и телеведущего Нила Оливера. Нил Оливер продолжает свое исследование того, как зародилась Британия и ее народы. Он посещает удивительные места, приступает к работе с экспериментальной командой археологов, и раскрытию древних тайн и чудес, созданными людьми два тысячелетия назад. Сериал рассказывает историю одной из развивающихся стран, начиная с железного века, друидов и римского завоевания. В те далекие времена, Британия показалась бы нам чуждой и неузнаваемой. Но произошла революция в технологиях, ознаменовавшая начало новой эпохи. Основное повествование посвящено одной из самых больших загадок истории. Кто такие были кельты, их религия?-
Источник/Качество: SATRip
Формат: AVI
Видео кодек: XviD
Аудио кодек: MP3
Видео: Xvid 704x400 25.00fps 1410 Kbps
Аудио: MPEG Audio Layer 3 48000Hz stereo 128kbps
Формат : AVI
Формат/Информация : Audio Video Interleave
Размер файла : 573 MiB
Продолжительность : 51mn 48s
Общий поток : 1 547 Kbps
Библиотека кодирования : VirtualDub build 32507/release
Video
Идентификатор : 0
Формат : MPEG-4 Visual
Профиль формата : Advanced [email protected]
Параметр BVOP формата : 2
Параметр QPel формата : No
Параметр GMC формата : No warppoints
Параметр матрицы формата : Default (H.263)
Режим смешивания : Packed bitstream
Идентификатор кодека : XVID
Идентификатор кодека/Подсказка : XviD
Продолжительность : 51mn 48s
Битрейт : 1 410 Kbps
Ширина : 704 pixels
Высота : 400 pixels
Соотношение сторон : 16:9
Частота кадров : 25.000 fps
Цветовое пространство : YUV
Подвыборка цветности : 4:2:0
Битовая глубина : 8 bits
Тип развёртки : Progressive
Метод сжатия : Lossy
Бит/(Пиксели*Кадры) : 0.200
Размер потока : 522 MiB (91%)
Библиотека кодирования : XviD 1.2.1 (UTC 2008-12-04)
Audio
Идентификатор : 1
Формат : MPEG Audio
Версия формата : Version 1
Профиль формата : Layer 3
Режим : Joint stereo
Расширение режима : MS Stereo
Идентификатор кодека : 55
Идентификатор кодека/Подсказка : MP3
Продолжительность : 51mn 48s
Вид битрейта : Constant
Битрейт : 128 Kbps
Канал(ы) : 2 channels
Частота : 48.0 KHz
Метод сжатия : Lossy
Размер потока : 47.4 MiB (8%)
Выравнивание : Split accross interleaves
Продолжительность промежутка : 40 ms (1.00 video frame)
Время предзагрузки промежутка : 500 ms
01. Железный век / Age of Iron
Железо как инструментальный материал известно с древнейших времён, самые древние изделия из железа, найденные при археологических раскопках, датируются 4-м тысячелетием до н. э. и относятся к древнешумерской и древнеегипетской цивилизациям. Эпоху в первобытной и раннеклассовой истории человечества, характеризующейся распространением металлургии железа и изготовлением железных орудий называют "Железным веком".
02. Эпоха воинов / Age of Warriors
Железный век - эпоха кельтской славы. Быстрорастущие британские племена демонстрируют воинственность, агрессивность и жестокость. Но вместе с тем появляется и нечто прекрасное: искусство, великолепные мечи невиданной доселе красоты. Кельты подарили нам искусство воинов, друидов и первых королей.
-
Download / Скачать

Хотите скачать бесплатно? Зарегистрируйтесь на сайте (ссылка на регистрацию). Pirat.ca - самый быстрый торрент трекер в рунете!

Как скачивать  ·   Что такое торрент  ·   Рейтинг и ограничения



Последний раз редактировалось: me14 (2012-01-21 21:33), всего редактировалось 1 раз

berezeca

Корсар

Пост 20-Янв-2012 20:33 (спустя 1 час 41 минута)

[Q] 

спасибо!
[Профиль]  [ЛС] 
Показать сообщения:    
Ответить на тему

Текущее время: Сегодня 13:35

Часовой пояс: GMT + 4



Вы не можете начинать темы
Вы не можете отвечать на сообщения
Вы не можете редактировать свои сообщения
Вы не можете удалять свои сообщения
Вы не можете голосовать в опросах
Вы не можете прикреплять файлы к сообщениям
Вы не можете скачивать файлы

▼ Вниз