ML
     
  Уважаемый Гость!
Вы можете поддержать проект и зарегистрироваться у наших партнеров - онлайн-стратегия MyLands. При регистрации в игре Вы получите код, который сможете активировать после регистрации на pirat.ca и получить 1000 дублонов.

Ваш код:
822959f93c00d34653763d5bbf9ee9a7134af98a
 
     

BBC: Жизнь Будды / The Life of Buddha (Клайв Молтби / Clive Maltby) [2003 г., документальный, научно-популярный, история, религия, DVDRip] DVO (Лицензия)

Ответить на тему
 
Автор
Сообщение

Пост 21-Янв-2015 17:50

[Q] 

LPPI

-BBC: Жизнь Будды / The Life of Buddha- Производство: Великобритания, British Broadcasting Corporation (BBC)
Жанр: документальный, научно-популярный, история, религия
Год выпуска: 2003 г.
Продолжительность: 00:49:57
Дата выхода DVD: 6 августа 2009, «Союз-Видео»
Перевод: Профессиональный (двухголосый, закадровый) [Лицензия]-Режиссер: Клайв Молтби / Clive Maltby-Описание: За 500 лет до Рождества Христова молодой принц оставил свой дворец и отправился в путешествие по северу Индии. Его учение стало философией, которой теперь следуют более 400 миллионов людей. Используя современные технологии, последние археологические исследования и мнения экспертов, в этом фильме мы постараемся восстановить жизнь того, кому удалось изменить курс истории для человечества в поиске вечного мира и счастья.- -Качество видео: DVDRip
Контейнер: AVI
Видео кодек: XviD
Аудио кодек: AC3
Видео: 720x416 (1.73:1), 25 fps, XviD build 50 ~1848 kbps avg, 0.25 bit/pixel
Аудио: 48 kHz, AC3 Dolby Digital, 2/0 (L,R) ch, ~224 kbps
Cубтитры: отсутствуют
General
Complete name : C:\Users\Ivan\Desktop\The.Life.of.Buddha.2003.DVDRip.avi
Format : AVI
Format/Info : Audio Video Interleave
File size : 744 MiB
Duration : 49mn 57s
Overall bit rate : 2 083 Kbps
Writing application : VirtualDubMod 1.5.10.3 | www.virtualdub-fr.org || (build 2550/release)
Writing library : VirtualDubMod build 2550/release
Video
ID : 0
Format : MPEG-4 Visual
Format profile : Advanced [email protected]
Format settings, BVOP : 2
Format settings, QPel : No
Format settings, GMC : No warppoints
Format settings, Matrix : Default (MPEG)
Codec ID : XVID
Codec ID/Hint : XviD
Duration : 49mn 57s
Bit rate : 1 849 Kbps
Width : 720 pixels
Height : 416 pixels
Display aspect ratio : 1.731
Frame rate : 25.000 fps
Color space : YUV
Chroma subsampling : 4:2:0
Bit depth : 8 bits
Scan type : Progressive
Compression mode : Lossy
Bits/(Pixel*Frame) : 0.247
Stream size : 661 MiB (89%)
Writing library : XviD 1.2.1 (UTC 2008-12-04)
Audio
ID : 1
Format : AC-3
Format/Info : Audio Coding 3
Mode extension : CM (complete main)
Format settings, Endianness : Big
Codec ID : 2000
Duration : 49mn 56s
Bit rate mode : Constant
Bit rate : 224 Kbps
Channel(s) : 2 channels
Channel positions : Front: L R
Sampling rate : 48.0 KHz
Bit depth : 16 bits
Compression mode : Lossy
Stream size : 80.0 MiB (11%)
Alignment : Split accross interleaves
Interleave, duration : 40 ms (1.00 video frame)
Interleave, preload duratio : 500 ms
Download / Скачать

Хотите скачать бесплатно? Зарегистрируйтесь на сайте (ссылка на регистрацию). Pirat.ca - самый быстрый торрент трекер в рунете!

Как скачивать  ·   Что такое торрент  ·   Рейтинг и ограничения

EDVAR

Легенда

Пост 21-Янв-2015 18:47 (спустя 56 минут)

[Q] 

Благодарен!!! Раздающему респект!

_________________
"Как других судить-вы судьи.Как себя-вы адвокаты"
[Профиль]  [ЛС] 

Antarres

Легенда

Пост 21-Янв-2015 23:40 (спустя 4 часа)

[Q] 

Thaks!

_________________
[Профиль]  [ЛС] 

Pit

Пост 21-Янв-2015 23:46 (спустя 5 минут)

[Q] 

сабай, сабай
На любителя
[Профиль]  [ЛС] 
Показать сообщения:    
Ответить на тему

Текущее время: Сегодня 05:57

Часовой пояс: GMT + 4



Вы не можете начинать темы
Вы не можете отвечать на сообщения
Вы не можете редактировать свои сообщения
Вы не можете удалять свои сообщения
Вы не можете голосовать в опросах
Вы не можете прикреплять файлы к сообщениям
Вы не можете скачивать файлы

▼ Вниз