ML
     
  Уважаемый Гость!
Вы можете поддержать проект и зарегистрироваться у наших партнеров - онлайн-стратегия MyLands. При регистрации в игре Вы получите код, который сможете активировать после регистрации на pirat.ca и получить 1000 дублонов.

Ваш код:
500cb7bd8d2cec9a8aba647a87ce41c4b76f06bd
 
     

BBC: Рассвет во Вселенной. Момент сотворения мира / Cosmic Dawn: The Real Moment of Creation / (Тоби МакДональд) [2015 г., Документальный, HDTVRip] VO

Ответить на тему
 
Автор
Сообщение

Пост 11-Июл-2016 18:49

[Q] 

Alex79

Шкипер

-BBC: Рассвет во Вселенной. Момент сотворения мира / Cosmic Dawn: The Real Moment of Creation-- Производство: Великобритания / BBC
Цикл: New Horizon
Жанр: Документальный
Год выпуска: 2015 г.
Продолжительность: 00:51:37
Перевод: Профессиональный (одноголосый, закадровый)
Режиссер: Тоби МакДональд / Toby Macdonald-Описание: Забудьте о Большом взрыве. Настоящий момент создания - это Космический Рассвет, появление первого света. Большой взрыв получил все лавры создания Вселенной, однако пространство, которое появилось, было темным и скучным. Не было ни звезд, ни галактик, просто огромное черное облако газа - космические темные века. Но через сто миллионов лет этого Ничто появились первые звезды, которые осветили Вселенную...-Качество видео: HDTVRip
Контейнер: AVI
Видео кодек: XviD
Аудио кодек: AC3
Видео: 720x400 (16:9), 25 fps, XviD, 1800 kbps avg, 0.250 bit/pixel
Аудио: 48 kHz, AC3 Dolby Digital, 2 ch, ~192 kbps
Cубтитры: отсутствуют
General
Complete name : BBC.Horizon.Cosmic.Dawn.The.Real.Moment.of.Creation.HDTVRip.[pirat.ca].avi
Format : AVI
Format/Info : Audio Video Interleave
File size : 739 MiB
Duration : 51mn 37s
Overall bit rate : 2 002 Kbps
Writing application : VirtualDubMod 1.5.10.3 | www.virtualdub-fr.org || (build 2550/release)
Writing library : VirtualDubMod build 2550/release
Video
ID : 0
Format : MPEG-4 Visual
Format profile : Advanced [email protected]
Format settings, BVOP : 1
Format settings, QPel : No
Format settings, GMC : No warppoints
Format settings, Matrix : Default (MPEG)
Codec ID : XVID
Codec ID/Hint : XviD
Duration : 51mn 37s
Bit rate : 1 800 Kbps
Width : 720 pixels
Height : 400 pixels
Display aspect ratio : 16:9
Frame rate : 25.000 fps
Color space : YUV
Chroma subsampling : 4:2:0
Bit depth : 8 bits
Scan type : Progressive
Compression mode : Lossy
Bits/(Pixel*Frame) : 0.250
Stream size : 665 MiB (90%)
Writing library : XviD 1.2.1 (UTC 2008-12-04)
Audio
ID : 1
Format : AC-3
Format/Info : Audio Coding 3
Mode extension : CM (complete main)
Format settings, Endianness : Big
Codec ID : 2000
Duration : 51mn 37s
Bit rate mode : Constant
Bit rate : 192 Kbps
Channel(s) : 2 channels
Channel positions : Front: L R
Sampling rate : 48.0 KHz
Compression mode : Lossy
Stream size : 70.9 MiB (10%)
Alignment : Split accross interleaves
Interleave, duration : 40 ms (1.00 video frame)
Interleave, preload duration : 500 ms
Download / Скачать

Хотите скачать бесплатно? Зарегистрируйтесь на сайте (ссылка на регистрацию). Pirat.ca - самый быстрый торрент трекер в рунете!

Как скачивать  ·   Что такое торрент  ·   Рейтинг и ограничения

Показать сообщения:    
Ответить на тему

Текущее время: Сегодня 01:45

Часовой пояс: GMT + 4



Вы не можете начинать темы
Вы не можете отвечать на сообщения
Вы не можете редактировать свои сообщения
Вы не можете удалять свои сообщения
Вы не можете голосовать в опросах
Вы не можете прикреплять файлы к сообщениям
Вы не можете скачивать файлы

▼ Вниз