ML
     
  Уважаемый Гость!
Вы можете поддержать проект и зарегистрироваться у наших партнеров - онлайн-стратегия MyLands. При регистрации в игре Вы получите код, который сможете активировать после регистрации на pirat.ca и получить 1000 дублонов.

Ваш код:
8dcb839cf1b47e56d6dc42d17f26b3e4822e9aee
 
     

BBC Жизнь в микромире \ Life in the Undergrowth [2005 г., документальный, DVDRip] (VO)

Ответить на тему
 
Автор
Сообщение

Пост 08-Ноя-2011 14:41

[Q] 

Покемон



Оригинальное название: Life in the Undergrowth
Год выпуска: 2005
Производство: Великобритания (BBC)
Жанр: документальный
Продолжительность: 5 фильмов по 50 минут
Перевод: Профессиональный (Одноголосый, закадровый)
В ролях: Рассказывает: Дэвид Аттенборо


Дэвид Аттенборо и компания ВВС приглашают зрителей в другой мир, чужой и даже враждебный человеку. Этот мир существует не на других планетах, он совсем рядом - у нас под ногами. Это мир насекомых. Целая Вселенная со своими гигантами и карликами, хищниками и жертвами. Здесь жизнь, обычно не заметная человеческому глазу, находится в постоянном движении и не замирает ни на секунду. В любую минуту на парковой дорожке, на крыльце вашего дома или даже на вашей кухне может развернуться жестокая битва непримиримых врагов мира насекомых. В повседневной жизни насекомые окружают нас повсюду. Миллионы лет мы живём с ними бок о бок. В мире насекомых размер не имеет значения, даже самый маленький обитатель микромира может быть жесток и кровожаден, как самый свирепый из известных нам хищников. К тому же не стоит забывать, что на одного человека приходится 200 миллионов насекомых.
Новые технологии микросъёмки в сочетании с передовыми компьютерными технологиями позволят увидеть фантастические перспективы - этого миниатюрного, но в тоже время огромного мира. А Дэвид Аттенборо в своём неподражаемом стиле познакомит нас с многими из его удивительных обитателей, с их жизнью, повадками и причудами.



Источник/Качество: DVDRip
Формат: AVI
Видео кодек: XviD
Аудио кодек: MPEG Audio
Видео: AVI: 698 Мбайт, 50 м.1805 Кбит/сек, 696*384 (16:9), в 25,000 кадров/секMPEG-4 Visual (XviD) (Сжатый битовый поток) (Advanced [email protected])
Аудио: 128 Кбит/сек, 48,0 КГц, 2 канала, MPEG Audio (MP3) (Version 1) (Layer 3) (Joint stereo / MS Stereo)
Субтитры: Отсутствуют
Формат : AVI
Формат/Информация : Audio Video Interleave
Размер файла : 698 Мбайт
Продолжительность : 50 м.
Режим общего битрейта : Переменный
Общий поток : 1948 Кбит/сек
Название фильма : BBC_Life_in_the_undergrowth_5_Supersocieties
Название фильма/Ссылка : www.senatorinfo.com
Запись произвёл : David Attenborough
Кодирование произвёл : DarkGhost
Студия-производитель : BBC
Жанр : Documentary
Программа кодирования : VirtualDubMod 1.5.10.2 (build 2540/release) VirtualDubMod build 2540/release
Видео
Идентификатор : 0
Формат : MPEG-4 Visual
Профиль формата : Advanced [email protected]
Параметр BVOP формата : 2
Параметр QPel формата : Нет
Параметр GMC формата : Без точки перехода
Параметр матрицы формата : Default (H.263)
Режим смешивания : Сжатый битовый поток
Идентификатор кодека : XVID
Идентификатор кодека/Подсказка : XviD
Продолжительность : 50 м.
Битрейт : 1802 Кбит/сек
Ширина : 696 пикселей
Высота : 384 пикселя
Соотношение сторон : 16:9
Частота кадров : 25,000 кадров/сек
Цветовое пространство : YUV
Субдискретизация насыщенности : 4:2:0
Битовая глубина : 8 бит
Тип развёртки : Прогрессивная
Метод сжатия : С потерями
Бит/(Пиксели*Кадры) : 0.270
Размер потока : 646 Мбайт (92%)
Библиотека кодирования : XviD 1.2.0SMP (UTC 2006-01-08)
удио
Идентификатор : 1
Формат : MPEG Audio
Версия формата : Version 1
Профиль формата : Layer 3
Режим : Joint stereo
Расширение режима : MS Stereo
Идентификатор кодека : 55
Идентификатор кодека/Подсказка : MP3
Продолжительность : 50 м.
Вид битрейта : Переменный
Битрейт : 128 Кбит/сек
Каналы : 2 канала
Частота : 48,0 КГц
Метод сжатия : С потерями
Размер потока : 47,8 Мбайт (7%)
Выравнивание : Соединение по промежуткам
Продолжительность промежутка : 24 мс. (0,60 видеокадр)
Время предзагрузки промежутка : 521 мс.
Библиотека кодирования : LAME3.90.
Настройки программы : -m j -V 4 -q 2 -lowpass 17.6 --abr 128
Язык : Russian




Download / Скачать

Хотите скачать бесплатно? Зарегистрируйтесь на сайте (ссылка на регистрацию). Pirat.ca - самый быстрый торрент трекер в рунете!

Как скачивать  ·   Что такое торрент  ·   Рейтинг и ограничения



Последний раз редактировалось: Покемон (2011-11-09 10:55), всего редактировалось 1 раз

БобХигинс

Корсар

611

Пост 20-Ноя-2011 17:18 (спустя 12 дней)

[Q] 

Потрясающе

_________________
Wild
[Профиль]  [ЛС] 

БобХигинс

Корсар

611

Пост 20-Ноя-2011 17:21 (спустя 3 минуты)

[Q] 

А кнопки СПАСИБО то нету

_________________
Wild
[Профиль]  [ЛС] 

yang1

Лоцман

Пост 01-Дек-2011 22:25 (спустя 11 дней)

[Q] 

поддержу как скачаю
[Профиль]  [ЛС] 

yang1

Лоцман

Пост 01-Дек-2011 22:27 (спустя 1 минута)

[Q] 

ежели надо залью 98 га -ввс
[Профиль]  [ЛС] 

Alex_cross

42

Пост 12-Янв-2012 03:25 (спустя 1 месяц 10 дней)

[Q] 

заливай детям самое то

_________________
За Веру, Царя и Отечество!
[Профиль]  [ЛС] 

Покемон ®

358

Пост 26-Янв-2012 12:28 (спустя 14 дней)

[Q] 

Alex_cross, да только я своих такое немогу заставить смотреть ))

_________________
[Профиль]  [ЛС] 

БобХигинс

Корсар

611

Пост 26-Фев-2012 20:03 (спустя 1 месяц)

[Q] 

Я своего отца не могу заставить посмотреть=)

_________________
Wild
[Профиль]  [ЛС] 

Alex_cross

42

Пост 09-Мар-2012 22:47 (спустя 12 дней)

[Q] 

Alex_cross, да только я своих такое немогу заставить смотреть ))
Ну мои пока смотрят, старший в основном ему 4 года :), что будет дальше пока не знаю

_________________
За Веру, Царя и Отечество!
[Профиль]  [ЛС] 

MihaLexx

Морской Волк

Пост 04-Апр-2013 10:28 (спустя 1 год)

[Q] 

Нужно больше скорости!
[Профиль]  [ЛС] 

MihaLexx

Морской Волк

Пост 04-Апр-2013 10:30 (спустя 2 минуты)

[Q] 

Не, серьезно... 3,5 гектара уже четвертый день качаю...
[Профиль]  [ЛС] 

massaen

Штурман

Пост 07-Апр-2013 01:18 (спустя 2 дня 14 часов)

[Q] 

[Профиль]  [ЛС] 

massaen

Штурман

Пост 07-Апр-2013 01:32 (спустя 13 минут)

[Q] 

[Профиль]  [ЛС] 

massaen

Штурман

Пост 07-Апр-2013 12:34 (спустя 11 часов)

[Q] 

Отличный фильм!
[Профиль]  [ЛС] 

гришасемечкин

Корсар

1179

Пост 20-Дек-2013 08:01 (спустя 8 месяцев 12 дней)

[Q] 

Эй, вернитесь на раздачу... А почему на этой странице AVAST ругается ?!!
[Профиль]  [ЛС] 
Показать сообщения:    
Ответить на тему

Текущее время: Сегодня 04:15

Часовой пояс: GMT + 4



Вы не можете начинать темы
Вы не можете отвечать на сообщения
Вы не можете редактировать свои сообщения
Вы не можете удалять свои сообщения
Вы не можете голосовать в опросах
Вы не можете прикреплять файлы к сообщениям
Вы не можете скачивать файлы

▼ Вниз