ML
     
  Уважаемый Гость!
Вы можете поддержать проект и зарегистрироваться у наших партнеров - онлайн-стратегия MyLands. При регистрации в игре Вы получите код, который сможете активировать после регистрации на pirat.ca и получить 1000 дублонов.

Ваш код:
b70663c760e7cd2521b8e123786cdd788200e3bd
 
     

BBC: Брачные игры в мире животных / Battle of the Sexes: in the Animal World (Джон Спаркс / John Sparks) [1999 г., Документальный, DVDRip] (MVO)

Ответить на тему
 
Автор
Сообщение

Пост 04-Дек-2011 13:28

[Q] 

UcrusPazzo

BBC: Брачные игры в мире животных / Battle of the Sexes: in the Animal World Год выпуска: 1999
Мировая премьера: 6 января 1999
Производство: Великобритания, BBC
Жанр: Документальный
Продолжительность: 02:55:16
Перевод: Любительский (многоголосный)
Оригинальный аудиопоток: Отсутствует-Режиссер: Джон Спаркс / John Sparks-В ролях: Сэмьюэл Уэст-Описание: Взаимоотношения между полами в мире животных очень сложны и многообразны. С одной стороны их отличают эгоизм и агрессивность, приводящие порой к смертельному исходу, с другой - трогательная и поистине нежная забота о своем "супруге" и потомстве.
Новая серия фильмов "Брачные игры в мире животных" - это подробный и увлекательнейший рассказ о том, как различные животные, от самых примитивных до самых высокоразвитых выполняют свою главную жизненную функцию - продолжение рода. Каждый фильм серии "Брачные игры в мире животных" - маленький шедевр, сплав опыта и новаторства. В работе операторов использованы революционные технологии киносъемки, основанные на последних достижениях науки и техники. Герои фильмов - настоящие "звезды" животного мира Земли, приоткрывающие тайны своей жизни, многие из которых неизвестны широкому зрителю...-Источник/Качество: DVDRip
Формат: AVI
Видео кодек: DivX
Аудио кодек: MP3
Видео: 544x448 (1.21:1), 25 fps, DivX Codec 5.05 ~981 kbps avg, 0.16 bit/pixel
Аудио: 44.100 kHz, MPEG Layer 3, 2 ch, ~128.00 kbps avg
Субтитры: нет
Общее
Формат : AVI
Формат/Информация : Audio Video Interleave
Размер файла : 700 Мбайт
Продолжительность : 1 ч. 27 м.
Общий поток : 1120 Кбит/сек
Программа кодирования : VirtualDubMod 1.5.10.1 (build 2439/release)
Библиотека кодирования : VirtualDubMod build 2439/release
Видео
Идентификатор : 0
Формат : MPEG-4 Visual
Параметр BVOP формата : 1
Параметр QPel формата : Нет
Параметр GMC формата : Без точки перехода
Параметр матрицы формата : Default (H.263)
Режим смешивания : Сжатый битовый поток
Идентификатор кодека : DX50
Идентификатор кодека/Подсказка : DivX 5
Продолжительность : 1 ч. 27 м.
Битрейт : 982 Кбит/сек
Ширина : 544 пикселя
Высота : 448 пикселей
Соотношение сторон : 1,214
Частота кадров : 25,000 кадров/сек
Цветовое пространство : YUV
Субдискретизация насыщенности : 4:2:0
Битовая глубина : 8 бит
Тип развёртки : Прогрессивная
Метод сжатия : С потерями
Бит/(Пиксели*Кадры) : 0.161
Размер потока : 614 Мбайт (88%)
Библиотека кодирования : DivX 5.0.5 (UTC 2003-04-24)
Аудио
Идентификатор : 1
Формат : MPEG Audio
Версия формата : Version 1
Профиль формата : Layer 3
Режим : Joint stereo
Расширение режима : MS Stereo
Идентификатор кодека : 55
Идентификатор кодека/Подсказка : MP3
Продолжительность : 1 ч. 27 м.
Вид битрейта : Постоянный
Битрейт : 128 Кбит/сек
Каналы : 2 канала
Частота : 44,1 КГц
Метод сжатия : С потерями
Размер потока : 80,0 Мбайт (11%)
Выравнивание : Разделение по промежуткам
Продолжительность промежутка : 40 мс. (1,00 видеокадр)
Время предзагрузки промежутка : 500 мс.
Download / Скачать

Хотите скачать бесплатно? Зарегистрируйтесь на сайте (ссылка на регистрацию). Pirat.ca - самый быстрый торрент трекер в рунете!

Как скачивать  ·   Что такое торрент  ·   Рейтинг и ограничения

Показать сообщения:    
Ответить на тему

Текущее время: Сегодня 00:19

Часовой пояс: GMT + 4



Вы не можете начинать темы
Вы не можете отвечать на сообщения
Вы не можете редактировать свои сообщения
Вы не можете удалять свои сообщения
Вы не можете голосовать в опросах
Вы не можете прикреплять файлы к сообщениям
Вы не можете скачивать файлы

▼ Вниз