ML
     
  Уважаемый Гость!
Вы можете поддержать проект и зарегистрироваться у наших партнеров - онлайн-стратегия MyLands. При регистрации в игре Вы получите код, который сможете активировать после регистрации на pirat.ca и получить 1000 дублонов.

Ваш код:
5af7de75d3db09b6a37bc8bab71b0e87ccde73d6
 
     

BBC: Молния. Природа наносит ответный удар / Lightning. Nature Strikes Back (Марк Эверест / Mark Everest) [2004 г., Документальный, Научно-популярный, DVDRip] MVO

Ответить на тему
 
Автор
Сообщение

Пост 21-Апр-2012 21:44

[Q] 

UcrusPazzo

BBC: Молния. Природа наносит ответный удар /
Lightning. Nature Strikes Back
-Год выпуска: 2004
Производство: Великобритания, BBC Worldwide Ltd.
Жанр: Документальный, Научно-популярный
Продолжительность серии: 00:59:00
Перевод: Профессиональный (одноголосый, закадровый)
Субтитры: русские-Режиссер: Марк Эверест / Mark Everest-Описание: Молния — это нечто яростное и неукротимое, ищущее некую цель. От неё можно пострадать везде, даже в машине или внутри здания. И если молния в состоянии превратить песок в стекловидную массу и выпарить из дерева воду, то какой же эффект она может произвести на тело человека, в основном состоящее из жидкости? Ежедневно на поверхность нашей планеты обрушивается свыше восьми миллионов ударов молний. Это одно из самых смертельных орудий природы. Удар молнии невозможно предугадать или спрогнозировать. Наука еще только начинает постигать зловещие загадки молний. Но по мере того, как ученые снимают покров со всё новых тайн, их открытия всё больше внушают ужас.-Источник/Качество: DVDRip
Формат: AVI
Видео кодек: XviD
Аудио кодек: AC3
Видео: 720x400 (1.80:1), 25 fps, XviD build 50 ~737 kbps avg, 0.10 bit/pixel
Аудио: 48 kHz, AC3 Dolby Digital, 2/0 (L,R) ch, ~192 kbps
Формат субтитров: prerendered (IDX+SUB)
Общее
Формат : AVI
Формат/Информация : Audio Video Interleave
Размер файла : 397 Мбайт
Продолжительность : 59 м.
Общий поток : 941 Кбит/сек
Название фильма : Lightning_-_Nature_Strikes_Back.Title3.DVDRip
Программа кодирования : Lavf52.33.0
Формат оригинала/Имя : Lightning_-_Nature_Strikes_Back
Видео
Идентификатор : 0
Формат : MPEG-4 Visual
Профиль формата : [email protected]
Параметр BVOP формата : Нет
Параметр QPel формата : Нет
Параметр GMC формата : Без точки перехода
Параметр матрицы формата : Default (H.263)
Идентификатор кодека : DX50
Идентификатор кодека/Подсказка : DivX 5
Продолжительность : 59 м.
Битрейт : 738 Кбит/сек
Ширина : 720 пикселей
Высота : 400 пикселей
Соотношение сторон : 16:9
Частота кадров : 25,000 кадров/сек
Цветовое пространство : YUV
Субдискретизация насыщенности : 4:2:0
Битовая глубина : 8 бит
Тип развёртки : Прогрессивная
Метод сжатия : С потерями
Бит/(Пиксели*Кадры) : 0.102
Размер потока : 311 Мбайт (78%)
Библиотека кодирования : XviD 1.2.1 (UTC 2008-12-04)
Аудио
Идентификатор : 1
Формат : AC-3
Формат/Информация : Audio Coding 3
Расширение режима : CM (complete main)
Параметр Endianness формата : Big
Идентификатор кодека : 2000
Продолжительность : 59 м.
Вид битрейта : Постоянный
Битрейт : 192 Кбит/сек
Каналы : 2 канала
Расположение каналов : Front: L R
Частота : 48,0 КГц
Битовая глубина : 16 бит
Метод сжатия : С потерями
Размер потока : 81,0 Мбайт (20%)
Выравнивание : Соединение по промежуткам
Продолжительность промежутка : 32 мс. (0,80 видеокадр)
Download / Скачать

Хотите скачать бесплатно? Зарегистрируйтесь на сайте (ссылка на регистрацию). Pirat.ca - самый быстрый торрент трекер в рунете!

Как скачивать  ·   Что такое торрент  ·   Рейтинг и ограничения



Последний раз редактировалось: UcrusPazzo (2013-09-19 16:45), всего редактировалось 2 раз(а)

Stalker_Ghost

Штурман

Пост 26-Июл-2013 17:49 (спустя 1 год 3 месяца)

[Q] 

Сид вернись!

_________________
Свободу не остановить!!!
[Профиль]  [ЛС] 

vyacheslav

Корсар

Пост 01-Май-2014 15:06 (спустя 9 месяцев 4 дня)

[Q] 

Интересная раздача, спасибо. Но, почему то не скачивается, а жаль
[Профиль]  [ЛС] 

UcrusPazzo ®

7670

Пост 01-Май-2014 20:21 (спустя 5 часов)

[Q] 

vyacheslav, качайте, на раздаче я и еще есть люди.

_________________
[Профиль]  [ЛС] 
Показать сообщения:    
Ответить на тему

Текущее время: Сегодня 14:13

Часовой пояс: GMT + 4



Вы не можете начинать темы
Вы не можете отвечать на сообщения
Вы не можете редактировать свои сообщения
Вы не можете удалять свои сообщения
Вы не можете голосовать в опросах
Вы не можете прикреплять файлы к сообщениям
Вы не можете скачивать файлы

▼ Вниз