ML
     
  Уважаемый Гость!
Вы можете поддержать проект и зарегистрироваться у наших партнеров - онлайн-стратегия MyLands. При регистрации в игре Вы получите код, который сможете активировать после регистрации на pirat.ca и получить 1000 дублонов.

Ваш код:
73640f24f8a0f579e128ea7346fd2db2b1009143
 
     

ВВС: Оружие Второй Мировой Войны / ВВС: Weapons of World War II (Сезон: 1 / Серии: 1-10) (Philip Nugus, Джонатан Мартин / Jonathan Martin) [2003 г., Документальный, DVDRip] MVO

Ответить на тему
 
Автор
Сообщение

Пост 09-Май-2012 15:48

[Q] 

UcrusPazzo

ВВС: Оружие Второй Мировой Войны /
ВВС: Weapons of World War II

-Год выпуска: 2003
Дата выхода DVD: 26 ноября 2009, «Союз-Видео»
Производство: США, Nugus/Martin Productions Ltd.
Жанр: Документальный
Продолжительность серии: 00:23:27
Перевод: Профессиональный (одноголосый, закадровый)
Оригинальный аудиопоток: английский
Субтитры: отсутствуют-Режиссер: Philip Nugus, Джонатан Мартин / Jonathan Martin-Описание: В истории человечества Вторая мировая война предстает как самая масштабная и разрушительная из всех войн. Именно в этот период подъем военной промышленности и создание самых смертоносных видов оружия достигли своего пика. В фильме компании ВВС рассматривается развитие основных систем вооружения - с самого начала войны и до ее окончания в 1945 году.
BBC: Оружие второй мировой войны. Часть 1
Серия 1: Танки
Танки были главной ударной силой армий времен Второй мировой войны. Мы проследим их эволюцию от довоенных легких танков до таких тяжелых монстров, как "Пантера" и "Тигр". Значительную роль на полях сражений сыграли и средние танки - советский "Т-34" и американский "Шерман".
Серия 2: Подлодки малого класса
В составе экипажей этих миниатюрных боевых кораблей зачастую было всего лишь два человека. Тем не менее, они играли важную роль в самых масштабных эпизодах войны.
Серия 3: Планеры
Во время Второй мировой войны планеры использовались для самых опасных и отчаянных десантных операций - ведь они могли сесть в таких местах, где не смогли бы приземлиться даже парашютисты.
Серия 4: Авианосцы
Огромные авианосцы с командами из тысяч людей - сегодня самое грозное оружие на море. Эти морские гиганты - продолжатели военно-морской стратегии, родившейся во время Второй мировой войны. В сражениях между Японией и Соединёнными Штатами на Тихом океане главную роль сыграли именно авианосцы.
BBC: Оружие второй мировой войны. Часть 2
Серия 5: Истребители-бомбардировщики
Этот особый вид авиации родился в сражениях Второй мировой войны, когда появились самые первые истребители-бомбардировщики. Они представляли собой скоростные маневренные машины с запасом бомб на борту - грозное сочетание истребителя и бомбардировщика в одной смертоносной конструкции.
Серия 6: Тяжелые бомбардировщики
Эти самолеты наносили самый тяжелый урон наземным целям противника, массированными ударами разрушая его экономические центры и дезорганизуя промышленность.
Серия 7: Линейные корабли
Более трёхсот лет линейные корабли господствовали на море, уничтожая друг друга сокрушительными залпами. Но Вторая мировая война стала закатом линкоров, так как на море утвердилось новое оружие. Классические артиллерийские дуэли ушли в прошлое, и большая часть линкоров погибла от действий авиации и подводных лодок.
BBC: Оружие второй мировой войны. Часть 3
Серия 8: Ракеты
Ракетное оружие стало грозным и самым перспективным видом вооружения в годы Второй мировой войны. Переносные ракетные установки, такие как американская базука и немецкий фауст-патрон, позволяли пехоте эффективно противостоять танкам. Мощным и устрашающим оружием была советская реактивная система залпового огня БМ-13 "Катюша". А немецкие ФАУ-2 стали первыми баллистическими ракетами в мире.
Серия 9: Торпедные катера
Быстрые патрульные катера, вооруженные торпедами и пулеметами, стали настоящими морскими налетчиками Второй мировой войны. В фильме вы узнаете о самых известных атаках с их участием.
Серия 10: Пулеметы
В отличие от Первой мировой войны, пулемет уже не доминировал на поле боя, но по-прежнему оставался мощным оружием и был способен изменять ход боя при атаке позиций противника штурмовыми отрядами. Он также был очень эффективен при установке его на танках и самолетах.-Источник/Качество: DVDRip
Формат: AVI
Видео кодек: XviD
Аудио кодек: AC3
Видео: 704x528 (1.33:1), 25 fps, XviD MPEG-4 ~1849 kbps avg, 0.20 bit/pixel
Аудио: 48 kHz, AC3 Dolby Digital, 2/0 (L,R) ch, ~192 kbps
Аудио #2: 48 kHz, AC3 Dolby Digital, 2/0 (L,R) ch, ~192 kbps
Общее
Формат : AVI
Формат/Информация : Audio Video Interleave
Размер файла : 380 Мбайт
Продолжительность : 23 м.
Общий поток : 2249 Кбит/сек
Программа кодирования : VirtualDubMod 1.5.10.2 (build 2540/release)
Библиотека кодирования : VirtualDubMod build 2540/release
Видео
Идентификатор : 0
Формат : MPEG-4 Visual
Профиль формата : Advanced [email protected]
Параметр BVOP формата : 2
Параметр QPel формата : Нет
Параметр GMC формата : Без точки перехода
Параметр матрицы формата : Default (H.263)
Режим смешивания : Сжатый битовый поток
Идентификатор кодека : XVID
Идентификатор кодека/Подсказка : XviD
Продолжительность : 23 м.
Битрейт : 1850 Кбит/сек
Ширина : 704 пикселя
Высота : 528 пикселей
Соотношение сторон : 4:3
Частота кадров : 25,000 кадров/сек
Цветовое пространство : YUV
Субдискретизация насыщенности : 4:2:0
Битовая глубина : 8 бит
Тип развёртки : Прогрессивная
Метод сжатия : С потерями
Бит/(Пиксели*Кадры) : 0.199
Размер потока : 313 Мбайт (82%)
Библиотека кодирования : XviD 1.2.1 (UTC 2008-12-04)
Аудио #1
Идентификатор : 1
Формат : AC-3
Формат/Информация : Audio Coding 3
Расширение режима : CM (complete main)
Параметр Endianness формата : Big
Идентификатор кодека : 2000
Продолжительность : 23 м.
Вид битрейта : Постоянный
Битрейт : 192 Кбит/сек
Каналы : 2 канала
Расположение каналов : Front: L R
Частота : 48,0 КГц
Битовая глубина : 16 бит
Метод сжатия : С потерями
Размер потока : 32,4 Мбайт (9%)
Выравнивание : Соединение по промежуткам
Продолжительность промежутка : 40 мс. (1,00 видеокадр)
Время предзагрузки промежутка : 512 мс.
Аудио #2
Идентификатор : 2
Формат : AC-3
Формат/Информация : Audio Coding 3
Расширение режима : CM (complete main)
Параметр Endianness формата : Big
Идентификатор кодека : 2000
Продолжительность : 23 м.
Вид битрейта : Постоянный
Битрейт : 192 Кбит/сек
Каналы : 2 канала
Расположение каналов : Front: L R
Частота : 48,0 КГц
Битовая глубина : 16 бит
Метод сжатия : С потерями
Размер потока : 32,4 Мбайт (9%)
Выравнивание : Разделение по промежуткам
Продолжительность промежутка : 40 мс. (1,00 видеокадр)
Время предзагрузки промежутка : 500 мс.
Download / Скачать

Хотите скачать бесплатно? Зарегистрируйтесь на сайте (ссылка на регистрацию). Pirat.ca - самый быстрый торрент трекер в рунете!

Как скачивать  ·   Что такое торрент  ·   Рейтинг и ограничения



Последний раз редактировалось: UcrusPazzo (2013-09-19 17:11), всего редактировалось 3 раз(а)

Дядя Витя

53892

Пост 09-Май-2012 16:53 (спустя 1 час 5 минут)

[Q] 


_________________
?
[Профиль]  [ЛС] 

alexx2201

33

Пост 17-Ноя-2015 00:45 (спустя 3 года 6 месяцев)

[Q] 

вот ээто интересно .... будем брать КУ 77 раз

_________________
Отпуск...внезапно
[Профиль]  [ЛС] 
Показать сообщения:    
Ответить на тему

Текущее время: Сегодня 22:34

Часовой пояс: GMT + 4



Вы не можете начинать темы
Вы не можете отвечать на сообщения
Вы не можете редактировать свои сообщения
Вы не можете удалять свои сообщения
Вы не можете голосовать в опросах
Вы не можете прикреплять файлы к сообщениям
Вы не можете скачивать файлы

▼ Вниз