ML
     
  Уважаемый Гость!
Вы можете поддержать проект и зарегистрироваться у наших партнеров - онлайн-стратегия MyLands. При регистрации в игре Вы получите код, который сможете активировать после регистрации на pirat.ca и получить 1000 дублонов.

Ваш код:
fe4e93b754a7c2b306fcfc8bc32532ea1cf59d3b
 
     

BBC Что такое свет / Light Fantastic (Серии 1-4) (Джилингс А.) [2004 г., DVDRip]

Ответить на тему
 
Автор
Сообщение

Пост 11-Май-2012 19:22

[Q] 

дайсик

BBC Что такое свет / Light Fantastic Год выпуска: 2004
Страна: Великобритания
Продолжительность: 4 серий ~ по 00:48:00, общее время - 03:12:00
Перевод: Профессиональный, одноголосный
Режиссер: Джилингс А.
Описание: Свет - основа жизни на нашей планете. Отвечая на вопросы "Почему небо голубое?" и "Почему трава зеленая?" можно давать однозначный ответ - "Благодаря свету". Эта неотъемлемая часть нашей жизни, но мы все еще стараемся понять феномен света. Многие известные ученые, начиная с Аристотеля, Галилео Галилея, Ньютона и Леонардо да Винчи, и включая Эйнштейна, прилагали все силы, чтобы раскрыть все тайны света. Этот фильм рассказывает о попытках проникнуть в секреты света, понять его сущность; о том, как менялись взгляды на его природу, благодаря новым открытиям; о том, как в результате многочисленных исследований этого явления расширялся кругозор человечества. И сейчас мы с уверенностью можем сказать, что свет в прямом и переносном смысле проникает во все уголки нашего бытия. Иными словами, свет - это жизнь.
Качество: DVDRip
Формат: AVI
Видео кодек: DivX
Аудио кодек: MP3
Видео: DivX 6.1.1, 576 x 432 (4:3), 25.000 fps, ~1044 kb/s, 0.168 bit/frame
Аудио: MP3 44100Hz 112 kb/s tot , Joint Stereo
олное имя : H:\BBC\BBC.Что такое свет\BBC.Light.Fantastic.1.of.4.Svet.Rasuma.forum.xvid.ru.avi
Формат : AVI
Формат/Информация : Audio Video Interleave
Размер файла : 400 Мбайт
Продолжительность : 48 м.
Общий поток : 1163 Кбит/сек
Программа кодирования : VirtualDubMod 1.5.4.1 (build 2178/release)
Библиотека кодирования : VirtualDubMod build 2178/release
Видео
Идентификатор : 0
Формат : MPEG-4 Visual
Параметр BVOP формата : Да
Параметр QPel формата : Нет
Параметр GMC формата : Без точки перехода
Параметр матрицы формата : Default (H.263)
Режим смешивания : Сжатый битовый поток
Идентификатор кодека : DX50
Идентификатор кодека/Подсказка : DivX 5
Продолжительность : 48 м.
Битрейт : 1044 Кбит/сек
Ширина : 576 пикс.
Высота : 432 пикс.
Соотношение сторон : 4:3
Частота кадров : 25,000 кадр/сек
Цветовое пространство : YUV
Подвыборка цветности : 4:2:0
Битовая глубина : 8 бит
Тип развёртки : Прогрессивная
Метод сжатия : С потерями
Бит/(Пиксели*Кадры) : 0.168
Размер потока : 359 Мбайт (90%)
Библиотека кодирования : DivX 6.1.1 (UTC 2006-02-01)
Аудио
Идентификатор : 1
Формат : MPEG Audio
Версия формата : Version 1
Профиль формата : Layer 3
Режим : Joint stereo
Расширение режима : MS Stereo
Идентификатор кодека : 55
Идентификатор кодека/Подсказка : MP3
Продолжительность : 48 м.
Вид битрейта : Постоянный
Битрейт : 112 Кбит/сек
Канал(ы) : 2 канала(ов)
Частота : 44,1 КГц
Метод сжатия : С потерями
Размер потока : 38,5 Мбайт (10%)
Выравнивание : Разделение по промежуткам
Продолжительность промежутка : 80 мс. (2,00 видеокадров)
Время предзагрузки промежутка : 500 ms
Библиотека кодирования : LAME3.97b
Настройки программы : -m j -V 4 -q 2 -lowpass 15.6 -b 112
Язык : Russian




Download / Скачать

Хотите скачать бесплатно? Зарегистрируйтесь на сайте (ссылка на регистрацию). Pirat.ca - самый быстрый торрент трекер в рунете!

Как скачивать  ·   Что такое торрент  ·   Рейтинг и ограничения



Последний раз редактировалось: дайсик (2012-05-12 13:47), всего редактировалось 2 раз(а)

mypa

Штурман

Пост 14-Ноя-2012 23:12 (спустя 6 месяцев 3 дня)

[Q] 

Познавательно
[Профиль]  [ЛС] 

Aviraelis

Морской Волк

24

Пост 07-Янв-2013 23:31 (спустя 1 месяц 23 дня)

[Q] 

Спасибо) Случайно наткнулся - помогло в занятиях и лекциях)
[Профиль]  [ЛС] 

ElSkorpio

16

Пост 12-Май-2014 20:12 (спустя 1 год 4 месяца)

[Q] 

Раздающему респект!

_________________
[Профиль]  [ЛС] 
Показать сообщения:    
Ответить на тему

Текущее время: Сегодня 14:26

Часовой пояс: GMT + 4



Вы не можете начинать темы
Вы не можете отвечать на сообщения
Вы не можете редактировать свои сообщения
Вы не можете удалять свои сообщения
Вы не можете голосовать в опросах
Вы не можете прикреплять файлы к сообщениям
Вы не можете скачивать файлы

▼ Вниз