ML
     
  Уважаемый Гость!
Вы можете поддержать проект и зарегистрироваться у наших партнеров - онлайн-стратегия MyLands. При регистрации в игре Вы получите код, который сможете активировать после регистрации на pirat.ca и получить 1000 дублонов.

Ваш код:
fcd618d94adc1456bccbde5047c9cd0930e4ae4d
 
     

BBC: Космос с Сэмом Ниллом / Space With Sam Neill (Серии: 1-6) (Jeremy Turner) [2001 г., Документальный, DVDRip]

Ответить на тему
 
Автор
Сообщение

Пост 11-Май-2012 19:33

[Q] 

дайсик

Космос с Сэмом Ниллом
Год выпуска: 2001
Страна: Великобритания
Жанр: Документальный
Длительность: 6 х 00:29:00, общее время - 02:53:57
Режиссер: Jeremy Turner / Джереми Тернер
В ролях: Sam Neill / Сэм Нил
Перевод: Профессиональный (одноголосный, русский)
Описание:
В этом увлекательном сериале Вас ждёт УРАГАННАЯ ПОЕЗДКА В КОСМОС c известным американским актёром Сэмом Ниллом. Кинозвезда, Сэм Нилл, возьмёт с собой на виртуальный борт зрителей во впечатляющую поездку по нашей Галактике и её пределы. В фильме использована современная компьютерная графика, моделирующая Вселенную и ее звезды рождённые в межзвёздных облаках, монстров планет и черных дыр. Красота и явная мощь космоса показаны на экране, используя удивительные изображения от телескопов, находящихся на земле и в космосе. Уникальный космический концепт фильмов - это виртуальная космическая зона глубоко в горах Новой Зеландии - позволяет Сэму Ниллу взаимодействовать непосредственно с воображаемой вселенной, бросая камень и наблюдая как он становится астероидом, который смёл с лица Земли динозавров.
Cодержание раздачи:
BBC - Space With Sam Neill - Вселенная (00:29:08)
BBC - Space With Sam Neill - Земля (00:29:05)
BBC - Space With Sam Neill - Чёрные дыры (00:29:04)
BBC - Space With Sam Neill - Смелее вперёд (00:28:30)
BBC - Space With Sam Neill - Одиноки ли мы (00:29:08)
BBC - Space With Sam Neill - Новые миры (00:29:02)
Качество: DVDRip
Формат: AVI
Видео кодек: MPEG-4 Visual
Аудио кодек: MPEG Audio
Видео: MPEG-4 Visual, 640x352, 25,000 fps, ~1 486 Kbps, ~0.264 Kbps
Аудио: MPEG Audio, 48,0 КГц, ~128 Kbps, Stereo
1-я серия: Звездное вещество. В этой серии будет рассказано о том, как зарождались звезды и образовывались планеты.
2-я серия: Остаться в живых. Прогуляйтесь по планете земля. Это чудесное место. Но этот дар не вечен, потому что однажды она исчезнет навсегда. Это история о вселенной в которой мы находимся, и об опасностях с которыми мы сталкиваемся просто живя здесь. Мы полетим вслед за кометами и астероидами, которые угрожают жизни на нашей планете. Здесь на земле мы воссоздадим путь нашего солнца в галактике и увидим как разворачиваются катаклизмы, которые могут стать и нашим концом.
3-я серия: Черные дыры. Род человеческий счастлив в неведении. Мы живем не зная, что в глубинах космоса поджидают невидимые чудовища. Разрушители достаточно мощные, чтобы разорвать на куски солнце и оставить от земли лишь обгорелые обломки. Вы стоите на пороге мира, где обитает самый страшный убийца во вселенной. Вы увидите рождение чудовища в сердце умирающей звезды. Мы будем искать его следы во мраке глубокого космоса.Это история о силе, которая способна уничтожить всех нас за один день - о черной дыре.
4-я серия: Одиноки ли мы? Все мы выросли, гадая, одиноки ли мы во вселенной? Или однажды нам предстоит столкнуться лицом к лицу с пришельцами. Это история о поисках инопланетян. Существуют ли они на самом деле? Мы отправимся в путешествие чтобы выяснить это. Мы посетим чужие миры в поисках жизни. Мы окунемся в океаны на спутниках далеких планет. Здесь, на земле, мы исследуем вселенную в поисках инопланетной жизни ответа на один из глобальных вопросов - есть ли жизнь на других планетах?
5-я серия: Другие миры. Солнце. Яркий и мощный творец жизни. Но это история о том, как однажды солнце станет нашим врагом. Если нам удастся выжить, то придется покинуть землю. Нам придется искать новый дом в удивительных местах. Изменять другие миры, чтобы воссоздать землю, которую мы покинули.
6-я серия: Смелее вперед! Мы, люди, преодолели огромные расстояния, путешествуя по миру в поисках новых земель, расселяясь по всем уголкам земного шара. Но пришло время расширить горизонты и снова отправиться в неизведанные дали. Это рассказ о путешествиях в космосе. Мы полетим к звездам на корабле, который движется благодаря солнечному свету. Мы будем исследовать самые дальние пределы космоса, путешествуя сквозь саму материю вселенной и узнаем о существовании аппарата, который составил совершенно новую карту неба.
Полное имя : H:\BBC\BBC - Space With Sam Neill\01. BBC - Space With Sam Neill - Вселенная.avi
Формат : AVI
Формат/Информация : Audio Video Interleave
Размер файла : 337 Мбайт
Продолжительность : 29 м.
Общий поток : 1617 Кбит/сек
Название фильма : BBC.Space.1of6.Star.Stuff.DivX5-AC3.www.mvgroup.org
Программа кодирования : VirtualDubMod 1.5.4.1 (build 2178/release)
Библиотека кодирования : VirtualDubMod build 2178/release
Видео
Идентификатор : 0
Формат : MPEG-4 Visual
Параметр BVOP формата : Да
Параметр QPel формата : Нет
Параметр GMC формата : Без точки перехода
Параметр матрицы формата : Default (H.263)
Режим смешивания : Сжатый битовый поток
Идентификатор кодека : DX50
Идентификатор кодека/Подсказка : DivX 5
Продолжительность : 29 м.
Битрейт : 1481 Кбит/сек
Ширина : 640 пикс.
Высота : 352 пикс.
Соотношение сторон : 16:9
Частота кадров : 25,000 кадр/сек
Цветовое пространство : YUV
Подвыборка цветности : 4:2:0
Битовая глубина : 8 бит
Тип развёртки : Прогрессивная
Метод сжатия : С потерями
Бит/(Пиксели*Кадры) : 0.263
Размер потока : 309 Мбайт (92%)
Заголовок : BBC.Space.1of6.Star.Stuff.DivX5-AC3.www.mvgroup.org
Библиотека кодирования : DivX 5.1.1 (Maupiti) (UTC 2003-11-19)
Аудио
Идентификатор : 1
Формат : MPEG Audio
Версия формата : Version 1
Профиль формата : Layer 3
Режим : Joint stereo
Расширение режима : MS Stereo
Идентификатор кодека : 55
Идентификатор кодека/Подсказка : MP3
Продолжительность : 28 м.
Вид битрейта : Постоянный
Битрейт : 128 Кбит/сек
Канал(ы) : 2 канала(ов)
Частота : 48,0 КГц
Метод сжатия : С потерями
Задержка видео : 1 с. 924 мс.
Размер потока : 26,2 Мбайт (8%)
Выравнивание : Разделение по промежуткам
Продолжительность промежутка : 41 мс. (1,02 видеокадр)
Время предзагрузки промежутка : 500 ms
Язык : un
Download / Скачать

Хотите скачать бесплатно? Зарегистрируйтесь на сайте (ссылка на регистрацию). Pirat.ca - самый быстрый торрент трекер в рунете!

Как скачивать  ·   Что такое торрент  ·   Рейтинг и ограничения



Последний раз редактировалось: дайсик (2012-05-12 11:56), всего редактировалось 4 раз(а)

YAZuk

Штурман

Пост 16-Сен-2012 17:57 (спустя 4 месяца 4 дня)

[Q] 

[Профиль]  [ЛС] 

MihaLexx

Морской Волк

Пост 04-Апр-2013 10:59 (спустя 6 месяцев 17 дней)

[Q] 

Так себе если честно... Больше фантастических выдумок, чем научных доказательств.
[Профиль]  [ЛС] 
Показать сообщения:    
Ответить на тему

Текущее время: Сегодня 12:51

Часовой пояс: GMT + 4



Вы не можете начинать темы
Вы не можете отвечать на сообщения
Вы не можете редактировать свои сообщения
Вы не можете удалять свои сообщения
Вы не можете голосовать в опросах
Вы не можете прикреплять файлы к сообщениям
Вы не можете скачивать файлы

▼ Вниз