ML
     
  Уважаемый Гость!
Вы можете поддержать проект и зарегистрироваться у наших партнеров - онлайн-стратегия MyLands. При регистрации в игре Вы получите код, который сможете активировать после регистрации на pirat.ca и получить 1000 дублонов.

Ваш код:
11f49771fdf057c9d51610e4a0925c3b46ddb655
 
     

BBC: Великие географические открытия. / Voyages of Discovery. (Часть: 1, Серии: 1-3) (Кри Боулд, Робин Дешвуд, Майк Сли) [2006 г., Документальное кино, DVDRip]

Ответить на тему
 
Автор
Сообщение

Пост 11-Май-2012 19:42

[Q] 

дайсик

BBC: Великие географические открытия. / Voyages of Discovery.
Год выпуска: 2006
Страна: Великобритания
Жанр: Документальное кино
Продолжительность: 3 серий ~ по 00:59:00, общее время - 03:00:00
Перевод: Профессиональный (полное дублирование)
Режиссер: Кри Боулд, Робин Дешвуд, Майк Сли
В ролях: Пол Роуз
Описание: Богатая морская история, уходящая корнями в глубокое прошлое, до сих пор оказывает огромное влияние на цивилизованное общество. Данная серия научно-популярных фильмов в доступной и увлекательной форме рассказывает о разнообразных аспектах взаимодействия человека с водной средой и о том, какие знания и горизонты открылись перед пытливыми умами, рискнувшими исследовать безграничные просторы мирового океана. Сложно найти отрасль, которой бы не коснулись эти знания.
Качество: DVDRip
Формат: AVI
Видео кодек: XviD
Аудио кодек: AC3
Video 1: 720x416 (1.73:1), 25 fps, XviD build 47 ~2445 kbps avg, 0.33 bit/pixel (Кругосветное плавание)
Video 2: 720x416 (1.73:1), 25 fps, XviD build 47 ~2953 kbps avg, 0.39 bit/pixel (Победа капитана Кука)
Video 3: 720x416 (1.73:1), 25 fps, XviD build 47 ~2147 kbps avg, 0.29 bit/pixel (Снежный король)
Audio: 48 kHz, AC3 Dolby Digital, 2/0 (L,R) ch, ~192.00 kbps avg (c 1 по 3)
Часть 1
Серия 1. Кругосветное плавание
Корабль "Виктория" был первым судном обогнувшим земной шар В ходе этого путешествии был пересечен великий океан, проложены новые торговые пути и выяснены истинные размеры нашей планеты. Это была история смелости и преодоления трудностей, голода и мятежа, героизма и смерти. Она превратила моряка и солдата ферме на Магеллана в одного из самых легендарных людей на планете. Но за легендой об этом первом кругосветном путешествии лежит реальная история.
Серия 2: Победа капитана Кука
Имя капитана Кука знают все, но в истории его открытий много белых пятен. Люди считают, что он открыл Новую Зеландию и Австралию. На самом деле это не так, но реальность не менее интересна. Ко времени своей гибели в 1779 году Кук стал легендой. Он изучил большую часть планеты, чем кто-либо еще и по праву считается одним из величайших первопроходцев всех времен.
Серия 3: Снежный Король
Весной 1892 года норвежский ученый Фритьоф Нансен объявил о смелом плане проникнуть в Арктику. Немногие входили в эти ледяные воды... и еще меньше возвращались. Эта экспедиция сделала потрясающие открытия и вывела полярные исследования на новый уровень. Но результат был достигнут ценой невероятных физических страданий и душевных мучений в самом негостеприимном месте на Земле.
Полное имя : H:\BBC\BBC -Великие географические открытия ч.1\Кругосветное плавание.avi
Формат : AVI
Формат/Информация : Audio Video Interleave
Размер файла : 1,09 Гбайт
Продолжительность : 59 м.
Общий поток : 2644 Кбит/сек
Программа кодирования : VirtualDubMod 1.5.4.1 (build 2178/release)
Библиотека кодирования : VirtualDubMod build 2178/release
Видео
Идентификатор : 0
Формат : MPEG-4 Visual
Профиль формата : Advanced [email protected]
Параметр BVOP формата : Да
Параметр QPel формата : Нет
Параметр GMC формата : Без точки перехода
Параметр матрицы формата : Выборочная
Идентификатор кодека : XVID
Идентификатор кодека/Подсказка : XviD
Продолжительность : 59 м.
Битрейт : 2445 Кбит/сек
Ширина : 720 пикс.
Высота : 416 пикс.
Соотношение сторон : 16:9
Частота кадров : 25,000 кадр/сек
Цветовое пространство : YUV
Подвыборка цветности : 4:2:0
Битовая глубина : 8 бит
Тип развёртки : Прогрессивная
Метод сжатия : С потерями
Бит/(Пиксели*Кадры) : 0.326
Размер потока : 1,01 Гбайт (92%)
Библиотека кодирования : XviD 1.2.0.dev47 (UTC 2006-11-01)
Аудио
Идентификатор : 1
Формат : AC-3
Формат/Информация : Audio Coding 3
Расширение режима : CM (complete main)
Идентификатор кодека : 2000
Продолжительность : 59 м.
Вид битрейта : Постоянный
Битрейт : 192 Кбит/сек
Канал(ы) : 2 канала(ов)
Расположение каналов : Front: L R
Частота : 48,0 КГц
Битовая глубина : 16 бит
Метод сжатия : С потерями
Размер потока : 81,2 Мбайт (7%)
Выравнивание : Соединение по промежуткам
Продолжительность промежутка : 96 мс. (2,40 видеокадров)
Время предзагрузки промежутка : 96 ms
Download / Скачать

Хотите скачать бесплатно? Зарегистрируйтесь на сайте (ссылка на регистрацию). Pirat.ca - самый быстрый торрент трекер в рунете!

Как скачивать  ·   Что такое торрент  ·   Рейтинг и ограничения



Последний раз редактировалось: дайсик (2012-05-12 13:20), всего редактировалось 6 раз(а)

terrex

Пост 11-Июл-2014 09:03 (спустя 2 года 1 месяц)

[Q] 

Эй, вернитесь на раздачу... мы все простим!
[Профиль]  [ЛС] 
Показать сообщения:    
Ответить на тему

Текущее время: Сегодня 03:14

Часовой пояс: GMT + 4



Вы не можете начинать темы
Вы не можете отвечать на сообщения
Вы не можете редактировать свои сообщения
Вы не можете удалять свои сообщения
Вы не можете голосовать в опросах
Вы не можете прикреплять файлы к сообщениям
Вы не можете скачивать файлы

▼ Вниз