ML
     
  Уважаемый Гость!
Вы можете поддержать проект и зарегистрироваться у наших партнеров - онлайн-стратегия MyLands. При регистрации в игре Вы получите код, который сможете активировать после регистрации на pirat.ca и получить 1000 дублонов.

Ваш код:
5af7de75d3db09b6a37bc8bab71b0e87ccde73d6
 
     

BBC: Вся правда о еде / BBC: The Truth About Food (Серии 1-4) (Caroline Penry-Davey) [2005 г., Документальный фильм, SATRip]

Ответить на тему
 
Автор
Сообщение

Пост 11-Май-2012 19:54

[Q] 

дайсик

BBC: Вся правда о еде / BBC: The Truth About Food (1976-2007)
Год выпуска: 2005-2007
Страна: Великобритания
Жанр: Документальный фильм
Продолжительность: 4 серий ~ по 00:46:00, общее время - 03:06:38
Перевод: Профессиональный (многоголосый, закадровый)
Режиссер: Caroline Penry-Davey
В ролях: Подопытные...
Описание:
Четыре фильма затрагивающие отдельные
аспекты проблемы питания человека:
1. ЕДА И ОМЕГА-3.
"Может ли рыба сделать ребенка умнее?"
2. ЕДА И ДЕТИ.
"Как нужно кормить детей".
3. ЕДА И СЕКС.
"Как быть сексуальным".
4. ЕДА И ДОЛГОЛЕТИЕ.
"Как остаться молодым и красивым".-Качество: SATRip
Формат: AVI
Видео кодек: XviD
Аудио кодек: MP3
Видео: XVID; 640x480; 23.976 fps; ~1500 Kbps
Аудио: MPEG Audio Layer 3; 48000 Hz; stereo; CBR; 128 Kbps
Полное имя : H:\BBC\Pravda.O.Ede[torrents.ufanet.ru]\1. Eda.I.Omega3_Mozhet.Li.Ryba.Sdelat'.Rebenka.Umnee.[BBC.2005].avi
Формат : AVI
Формат/Информация : Audio Video Interleave
Размер файла : 532 Мбайт
Продолжительность : 45 м.
Общий поток : 1641 Кбит/сек
Видео
Идентификатор : 0
Формат : MPEG-4 Visual
Профиль формата : Advanced [email protected]
Параметр BVOP формата : Да
Параметр QPel формата : Нет
Параметр GMC формата : Без точки перехода
Параметр матрицы формата : Default (MPEG)
Идентификатор кодека : XVID
Идентификатор кодека/Подсказка : XviD
Продолжительность : 45 м.
Битрейт : 1508 Кбит/сек
Ширина : 640 пикс.
Высота : 480 пикс.
Соотношение сторон : 4:3
Частота кадров : 23,976 кадр/сек
Цветовое пространство : YUV
Подвыборка цветности : 4:2:0
Битовая глубина : 8 бит
Тип развёртки : Чересстрочная
Порядок развёртки : Нижнее поле первое
Метод сжатия : С потерями
Бит/(Пиксели*Кадры) : 0.205
Размер потока : 489 Мбайт (92%)
Библиотека кодирования : XviD 1.1.2 (UTC 2006-11-01)
Аудио
Идентификатор : 1
Формат : MPEG Audio
Версия формата : Version 1
Профиль формата : Layer 3
Режим : Joint stereo
Расширение режима : MS Stereo
Идентификатор кодека : 55
Идентификатор кодека/Подсказка : MP3
Продолжительность : 45 м.
Вид битрейта : Постоянный
Битрейт : 128 Кбит/сек
Канал(ы) : 2 канала(ов)
Частота : 48,0 КГц
Метод сжатия : С потерями
Размер потока : 41,5 Мбайт (8%)
Выравнивание : Соединение по промежуткам
Продолжительность промежутка : 980 мс. (23,50 видеокадров)
Время предзагрузки промежутка : 216 ms
Заголовок : audio
Библиотека кодирования : LAME3.97
Настройки программы : -m j -V 4 -q 0 -lowpass 17 -b 128
Download / Скачать

Хотите скачать бесплатно? Зарегистрируйтесь на сайте (ссылка на регистрацию). Pirat.ca - самый быстрый торрент трекер в рунете!

Как скачивать  ·   Что такое торрент  ·   Рейтинг и ограничения



Последний раз редактировалось: дайсик (2012-05-12 13:23), всего редактировалось 1 раз

koasa

Штурман

Пост 01-Ноя-2014 10:42 (спустя 2 года 5 месяцев)

[Q] 

М-да... так и нет ни одного сидера. Жалко. Не качает
[Профиль]  [ЛС] 
Показать сообщения:    
Ответить на тему

Текущее время: Сегодня 14:15

Часовой пояс: GMT + 4



Вы не можете начинать темы
Вы не можете отвечать на сообщения
Вы не можете редактировать свои сообщения
Вы не можете удалять свои сообщения
Вы не можете голосовать в опросах
Вы не можете прикреплять файлы к сообщениям
Вы не можете скачивать файлы

▼ Вниз