ML
     
  Уважаемый Гость!
Вы можете поддержать проект и зарегистрироваться у наших партнеров - онлайн-стратегия MyLands. При регистрации в игре Вы получите код, который сможете активировать после регистрации на pirat.ca и получить 1000 дублонов.

Ваш код:
db0e0ad91548759ffeb9bb88bed405e1a4b3c165
 
     

BBC: Инстинкт человека / BBC: Human Instinct (Серии 1-4) [2002 г., Научно-популярный, DVDRip]

Ответить на тему
 
Автор
Сообщение

Пост 11-Май-2012 20:07

[Q] 

дайсик

BBC: Инстинкт человека / BBC: Human Instinct
Год выпуска: 2002
Жанр: Научно-популярный
Продолжительность: 4 серий ~ по 00:46:00, общее время - 03:02:39
Перевод: Профессиональный (двухголосый)
Описание: Документальный фильм из коллекции ВВС подробно расскажет об основных человеческих инстинктах и о том, как в свое время благодаря им человечество совершило стремительный эволюционный скачок. Четыре серии, полные потрясающих спецэффектов, экспериментов и комментариев ученых, позволят зрителю проникнуть в тайны скрытых человеческих возможностей. Еще в стародавние времена инстинкты защищали человека, помогая выживать в суровом доисторическом мире. Но с тех пор прошло немало лет, и животные инстинкты претерпели значительные изменения. Наши инстинкты как бы "уснули". Тем удивительнее становится, когда некоторые люди вдруг каким-то чудесным образом открывают в себе те или иные, давно забытые способности.
Наука еще только начинает вникать в глины скрытых способностей человека.
Качество: DVDRip
Формат: AVI
Видео кодек: DivX
Аудио кодек: AC3
Видео: 704x400 (1.76:1), 25 fps, DivX Codec 5.x or 6.x ~1752 kbps avg, 0.25 bit/pixel
Аудио: 48 kHz, AC3 Dolby Digital, 2/0 (L,R) ch, ~256.00 kbps avg

Фильм 1-й: Рожденный выживать / Born to survive.
Что за неведомая сила движет человеком, помогая избежать смертельной опасности в самую последнюю секунду? Это инстинкт выживания. Вы хотите знать, почему плачет ребенок? Как малышу удается интуитивно распознать съедобное и несъедобное? Почему некоторые люди так жаждут адреналина? Что заставляет человека рисковать своей жизнью?
Фильм 2-й: Тайные желания / Deepest desires. Желание продолжения рода - один из самых мощных инстинктов, которыми обладает человек. Мы унаследовали его от далеких предков и лишь благодаря этому человечество не исчезло с лица земли. Но насколько различны представления о сексе у мужчин и женщин! Какие сигналы мы подаем друг другу, чем руководствуемся при выборе партнера? И можем ли мы быть 100% уверены в его верности?
Фильм 3-й: Воля к победе / The Will to Win. Каждый человек стремится побеждать. Это инстинктивное желание сохранило наш вид и позволило человечеству достичь небывалых высот. Это желание действует всегда и всюду! Не верьте тому, кто говорит, что победа не важна! Но что заряжает нас волей к победе?
Фильм 4-й: Прирожденные герои / Natural Born Heroes. Почему самые обычные люди готовы совершать безумные и опасные поступки? Рискуя жизнью, человечество приобретает новый опыт и новые знания. Что такое альтруизм и почему мы, рискуя собой, спасаем других? Каков глубинный смысл такого поведения?
Полное имя : H:\BBC\Human Instinct (Инстинкт Человека)\01. Born to Survive (Рождённые Выживать).avi
Формат : AVI
Формат/Информация : Audio Video Interleave
Размер файла : 700 Мбайт
Продолжительность : 48 м.
Общий поток : 2015 Кбит/сек
Программа кодирования : VirtualDubMod 1.5.4.1 (build 2178/release)
Библиотека кодирования : VirtualDubMod build 2178/release
Видео
Идентификатор : 0
Формат : MPEG-4 Visual
Параметр BVOP формата : Да
Параметр QPel формата : Нет
Параметр GMC формата : Без точки перехода
Параметр матрицы формата : Default (H.263)
Режим смешивания : Сжатый битовый поток
Идентификатор кодека : DX50
Идентификатор кодека/Подсказка : DivX 5
Продолжительность : 48 м.
Битрейт : 1752 Кбит/сек
Ширина : 704 пикс.
Высота : 400 пикс.
Соотношение сторон : 16:9
Частота кадров : 25,000 кадр/сек
Цветовое пространство : YUV
Подвыборка цветности : 4:2:0
Битовая глубина : 8 бит
Тип развёртки : Прогрессивная
Метод сжатия : С потерями
Бит/(Пиксели*Кадры) : 0.249
Размер потока : 609 Мбайт (87%)
Библиотека кодирования : DivX 6.8.5 (UTC 2009-08-20)
Аудио
Идентификатор : 1
Формат : AC-3
Формат/Информация : Audio Coding 3
Расширение режима : CM (complete main)
Идентификатор кодека : 2000
Продолжительность : 48 м.
Вид битрейта : Постоянный
Битрейт : 256 Кбит/сек
Канал(ы) : 2 канала(ов)
Расположение каналов : Front: L R
Частота : 48,0 КГц
Битовая глубина : 16 бит
Метод сжатия : С потерями
Размер потока : 89,0 Мбайт (13%)
Выравнивание : Соединение по промежуткам
Продолжительность промежутка : 96 мс. (2,40 видеокадров)
Время предзагрузки промежутка : 96 ms
Язык : Russian
Download / Скачать

Хотите скачать бесплатно? Зарегистрируйтесь на сайте (ссылка на регистрацию). Pirat.ca - самый быстрый торрент трекер в рунете!

Как скачивать  ·   Что такое торрент  ·   Рейтинг и ограничения

Guppy

Пост 09-Мар-2014 11:02 (спустя 1 год 9 месяцев)

[Q] 

У моей будущей бывшей жены только инстинкт продолжения рода и работает - дает всем на право и на лево.
[Профиль]  [ЛС] 
Показать сообщения:    
Ответить на тему

Текущее время: Сегодня 08:11

Часовой пояс: GMT + 4



Вы не можете начинать темы
Вы не можете отвечать на сообщения
Вы не можете редактировать свои сообщения
Вы не можете удалять свои сообщения
Вы не можете голосовать в опросах
Вы не можете прикреплять файлы к сообщениям
Вы не можете скачивать файлы

▼ Вниз