ML
     
  Уважаемый Гость!
Вы можете поддержать проект и зарегистрироваться у наших партнеров - онлайн-стратегия MyLands. При регистрации в игре Вы получите код, который сможете активировать после регистрации на pirat.ca и получить 1000 дублонов.

Ваш код:
2932e5898d0a27592397f70b82a5834d1e70ea19
 
     

BBC: Лицо Человека / BBC: The Human Face (Серии 1-4) [2001 г., Научно-популярный, DVDRip]

Ответить на тему
 
Автор
Сообщение

Пост 11-Май-2012 20:14

[Q] 

дайсик

BBC: Лицо Человека / BBC: The Human Face

Год выпуска: 2001
Жанр: Научно-популярный
Продолжительность: 4 серий ~ по 00:45:00, общее время - 03:00:19
Перевод: Профессиональный (одноголосый)
Описание: Сериал "Лицо человека" не только познавателен, но и развлекателен. На примере замечательного (во всех пониманиях) лица Лиз Херли, которая снялась здесь в разных ролях, ведущий (знаменитый комик Джон Клиз) пытается выяснить зависит или от внешних данных карьера человека, его социальный успех, успех у противоположного пола, или все-таки все зависит от самого человека, а совсем не от его лица. Однако лицо - это зеркало нашего культурного развития, нашего личного опыта и генетических особенностей рода. В целом, эта дискуссия в фильме тянется на пять миллионов лет эволюции человеческого лица. А принимают участие в ней еще и Кэти Ломан, прежняя звезда "Плейбоя" (что обычно интересуется тем, что ниже лица), телеведущий сэр Девид Аттенборо (какого любят не за лицо) и "агент 007" Пирс Броснан (с чем у него точно нет проблем, так это с лицом).
1-я серия. Лицом к лицу / Face to face.
2-я серия. На вас смотрят / Here's looking at you.
3-я серия. Красота / Beauty.
4-я серия. Слава / Fame.

Качество: DVDRip
Формат: AVI
Видео кодек: XviD
Аудио кодек: MPEG Audio
Видео: 720x400 (1.80:1), 29.970 fps, XviD Final 1.0 (build 34) ~1827 kbps avg, 0.21 bit/pixel
Аудио: 44.100 kHz, MPEG Layer 3, 2 ch, ~128.00 kbps avg
Полное имя : H:\BBC\The Human Face (Лицо человека)\01. Face To Face (Лицом к Лицу).avi
Формат : AVI
Формат/Информация : Audio Video Interleave
Размер файла : 698 Мбайт
Продолжительность : 49 м.
Общий поток : 1966 Кбит/сек
Название фильма : Bbc - John Cleese - The Human Face - 1-4
Режиссёр : for Fonarik.tv
Программа кодирования : VirtualDubMod 1.5.10.2 (build 2540/release)
Библиотека кодирования : VirtualDubMod build 2540/release
Видео
Идентификатор : 0
Формат : MPEG-4 Visual
Профиль формата : Advanced [email protected]
Параметр BVOP формата : Да
Параметр QPel формата : Нет
Параметр GMC формата : Без точки перехода
Параметр матрицы формата : Выборочная
Идентификатор кодека : XVID
Идентификатор кодека/Подсказка : XviD
Продолжительность : 49 м.
Битрейт : 1827 Кбит/сек
Ширина : 720 пикс.
Высота : 400 пикс.
Соотношение сторон : 16:9
Частота кадров : 29,970 кадр/сек
Цветовое пространство : YUV
Подвыборка цветности : 4:2:0
Битовая глубина : 8 бит
Тип развёртки : Прогрессивная
Метод сжатия : С потерями
Бит/(Пиксели*Кадры) : 0.212
Размер потока : 649 Мбайт (93%)
Библиотека кодирования : XviD 1.0.0 (UTC 2004-05-09)
Аудио
Идентификатор : 1
Формат : MPEG Audio
Версия формата : Version 1
Профиль формата : Layer 3
Режим : Joint stereo
Расширение режима : MS Stereo
Идентификатор кодека : 55
Идентификатор кодека/Подсказка : MP3
Продолжительность : 49 м.
Вид битрейта : Постоянный
Битрейт : 128 Кбит/сек
Канал(ы) : 2 канала(ов)
Частота : 44,1 КГц
Метод сжатия : С потерями
Задержка видео : 21 мс.
Размер потока : 45,1 Мбайт (6%)
Выравнивание : Разделение по промежуткам
Продолжительность промежутка : 34 мс. (1,01 видеокадр)
Время предзагрузки промежутка : 500 ms
Download / Скачать

Хотите скачать бесплатно? Зарегистрируйтесь на сайте (ссылка на регистрацию). Pirat.ca - самый быстрый торрент трекер в рунете!

Как скачивать  ·   Что такое торрент  ·   Рейтинг и ограничения

Показать сообщения:    
Ответить на тему

Текущее время: Сегодня 08:00

Часовой пояс: GMT + 4



Вы не можете начинать темы
Вы не можете отвечать на сообщения
Вы не можете редактировать свои сообщения
Вы не можете удалять свои сообщения
Вы не можете голосовать в опросах
Вы не можете прикреплять файлы к сообщениям
Вы не можете скачивать файлы

▼ Вниз