ML
     
  Уважаемый Гость!
Вы можете поддержать проект и зарегистрироваться у наших партнеров - онлайн-стратегия MyLands. При регистрации в игре Вы получите код, который сможете активировать после регистрации на pirat.ca и получить 1000 дублонов.

Ваш код:
8dcb839cf1b47e56d6dc42d17f26b3e4822e9aee
 
     

BBC: Муравьи атакуют / Ant Attack (Neil Lucas) [Научно-популярный, SATRip]

Ответить на тему
 
Автор
Сообщение

Пост 11-Май-2012 20:23

[Q] 

дайсик

BBC: Муравьи атакуют / Ant Attack
Страна: Великобритания
Жанр: Научно-популярный
Продолжительность: 00:49:09
Перевод: Профессиональный (одноголосый)
Режиссер: Neil Lucas
Описание:
Этот фильм рассказывает о самом жестоком убийце на планете Земля. Это не отдельное живое существо, а целая армия - армия муравьёв. Это мощная и хорошо организованная военная сила, состоящая из 20 миллионов самок и нескольких самцов, составляющих самое крупное на планете семейство. Муравьиная царица даёт жизнь поколению новых рабочих и солдат. Этот рассказ о существах, живущих с нами бок о бок, о мире, где встречаются крошечные чудовища, где выживает сильнейший - это мир, в котором царствует самый страшный хищник на планете - африканский муравей.
Качество: SATRip
Формат: AVI
Видео кодек: DivX
Аудио кодек: MP3
Видео: DivX 4, 720 x 576 (5:4), 25.000fps, 1000kb/s, 0.096bit/frame
Аудио: mp3 48000Hz, 128kb/s, Joint stereo
Полное имя : H:\BBC\BBC_Муравьи атакуют.avi
Формат : AVI
Формат/Информация : Audio Video Interleave
Размер файла : 401 Мбайт
Продолжительность : 49 м.
Общий поток : 1141 Кбит/сек
Видео
Идентификатор : 0
Формат : MPEG-4 Visual
Параметр BVOP формата : Нет
Параметр QPel формата : Нет
Параметр GMC формата : Без точки перехода
Параметр матрицы формата : Default (H.263)
Идентификатор кодека : DIVX
Идентификатор кодека/Информация : Project Mayo
Идентификатор кодека/Подсказка : DivX 4
Продолжительность : 49 м.
Битрейт : 1000 Кбит/сек
Ширина : 720 пикс.
Высота : 576 пикс.
Соотношение сторон : 5:4
Частота кадров : 25,000 кадр/сек
Стандарт вещания : PAL
Цветовое пространство : YUV
Подвыборка цветности : 4:2:0
Битовая глубина : 8 бит
Тип развёртки : Прогрессивная
Метод сжатия : С потерями
Бит/(Пиксели*Кадры) : 0.096
Размер потока : 352 Мбайт (88%)
Библиотека кодирования : avc2.0.11.1110
Аудио
Идентификатор : 1
Формат : MPEG Audio
Версия формата : Version 1
Профиль формата : Layer 3
Режим : Joint stereo
Расширение режима : MS Stereo
Идентификатор кодека : 55
Идентификатор кодека/Подсказка : MP3
Продолжительность : 49 м.
Вид битрейта : Постоянный
Битрейт : 128 Кбит/сек
Канал(ы) : 2 канала(ов)
Частота : 48,0 КГц
Метод сжатия : С потерями
Размер потока : 45,0 Мбайт (11%)
Выравнивание : Соединение по промежуткам
Продолжительность промежутка : 24 мс. (0,60 видеокадр)
Download / Скачать

Хотите скачать бесплатно? Зарегистрируйтесь на сайте (ссылка на регистрацию). Pirat.ca - самый быстрый торрент трекер в рунете!

Как скачивать  ·   Что такое торрент  ·   Рейтинг и ограничения

terrex

Пост 11-Июл-2014 09:05 (спустя 2 года 1 месяц)

[Q] 

Эй, вернитесь на раздачу... мы все простим!!
[Профиль]  [ЛС] 
Показать сообщения:    
Ответить на тему

Текущее время: Сегодня 04:16

Часовой пояс: GMT + 4



Вы не можете начинать темы
Вы не можете отвечать на сообщения
Вы не можете редактировать свои сообщения
Вы не можете удалять свои сообщения
Вы не можете голосовать в опросах
Вы не можете прикреплять файлы к сообщениям
Вы не можете скачивать файлы

▼ Вниз