ML
     
  Уважаемый Гость!
Вы можете поддержать проект и зарегистрироваться у наших партнеров - онлайн-стратегия MyLands. При регистрации в игре Вы получите код, который сможете активировать после регистрации на pirat.ca и получить 1000 дублонов.

Ваш код:
b70663c760e7cd2521b8e123786cdd788200e3bd
 
     

BBC: Настоящее жульничество / BBC: The Real Hustle (Серии 1-12) [2009 г., Документальный, DVDRip]

Ответить на тему
 
Автор
Сообщение

Пост 11-Май-2012 20:31

[Q] 

дайсик

BBC: Настоящее жульничество / BBC: The Real Hustle
Год выпуска: 2009
Страна: Великобритания
Жанр: Документальный
Продолжительность: 12 серий ~ по 00:28:00, общее время - 05:32:39
Перевод: Профессиональный (двухголосый) В ролях: Paul Wilson, Jessica-Jane Clement, Alexis Conran
Описание: Команда подставных жуликов выходит на улицы мегаполисов. Скрытые камеры следят за тем, как они обманывают честных граждан. Вы можете встретить их в казино, на туристической улице или в супермаркете. Сразу вам не удастся их раскусить, только когда вы обнаружите, что остались без копейки, вам откроют правду – вы попались на крючок к настоящим жуликам.
Как происходит грабеж средь бела дня? Все самые распространенные виды мошенничества! Посмотрите на себя со стороны и не попадайтесь в руки грабителей в реальной жизни. Лучшие советы в программе «Настоящее жульничество».
Качество: DVDRip
Формат: AVI
Видео кодек: DivX
Аудио кодек: MP3
Видео: 640x400, ~1000 kbps, 25 fps, ~0.195 b/px
Аудио: 44 kHz, ~128-160.00 kbps, Joint Stereo, 2ch
Полное имя : H:\BBC\BBCRealHustle\The_real_hustle_Las_vegas_01.avi
Формат : AVI
Формат/Информация : Audio Video Interleave
Размер файла : 263 Мбайт
Продолжительность : 28 м.
Общий поток : 1306 Кбит/сек
Программа кодирования : Lavf51.7.0
Видео
Идентификатор : 0
Формат : MPEG-4 Visual
Профиль формата : [email protected]
Параметр BVOP формата : Нет
Параметр QPel формата : Нет
Параметр GMC формата : Без точки перехода
Параметр матрицы формата : Default (H.263)
Идентификатор кодека : DIVX
Идентификатор кодека/Информация : Project Mayo
Идентификатор кодека/Подсказка : DivX 4
Продолжительность : 28 м.
Битрейт : 1167 Кбит/сек
Ширина : 640 пикс.
Высота : 400 пикс.
Соотношение сторон : 1,600
Частота кадров : 25,000 кадр/сек
Цветовое пространство : YUV
Подвыборка цветности : 4:2:0
Битовая глубина : 8 бит
Тип развёртки : Прогрессивная
Метод сжатия : С потерями
Бит/(Пиксели*Кадры) : 0.182
Размер потока : 235 Мбайт (89%)
Библиотека кодирования : Lavc51.28.0
Аудио
Идентификатор : 1
Формат : MPEG Audio
Версия формата : Version 1
Профиль формата : Layer 3
Режим : Joint stereo
Расширение режима : MS Stereo
Идентификатор кодека : 55
Идентификатор кодека/Подсказка : MP3
Продолжительность : 28 м.
Вид битрейта : Постоянный
Битрейт : 128 Кбит/сек
Канал(ы) : 2 канала(ов)
Частота : 44,1 КГц
Метод сжатия : С потерями
Размер потока : 25,8 Мбайт (10%)
Выравнивание : Соединение по промежуткам
Продолжительность промежутка : 26 мс. (0,65 видеокадр)
Время предзагрузки промежутка : 522 ms
Библиотека кодирования : LAME3.96
Download / Скачать

Хотите скачать бесплатно? Зарегистрируйтесь на сайте (ссылка на регистрацию). Pirat.ca - самый быстрый торрент трекер в рунете!

Как скачивать  ·   Что такое торрент  ·   Рейтинг и ограничения

klas14

Корсар

Пост 14-Фев-2015 21:52 (спустя 2 года 9 месяцев)

[Q] 

Встаньте на раздачу!

_________________
[Профиль]  [ЛС] 
Показать сообщения:    
Ответить на тему

Текущее время: Сегодня 00:22

Часовой пояс: GMT + 4



Вы не можете начинать темы
Вы не можете отвечать на сообщения
Вы не можете редактировать свои сообщения
Вы не можете удалять свои сообщения
Вы не можете голосовать в опросах
Вы не можете прикреплять файлы к сообщениям
Вы не можете скачивать файлы

▼ Вниз