ML
     
  Уважаемый Гость!
Вы можете поддержать проект и зарегистрироваться у наших партнеров - онлайн-стратегия MyLands. При регистрации в игре Вы получите код, который сможете активировать после регистрации на pirat.ca и получить 1000 дублонов.

Ваш код:
ca44e9295b9b8527ba1c339c20494f70782efea6
 
     

BBC: Разум Человека / BBC: The Human Mind (Серии 1-3) [2003 г., Научно-популярный, DVDRip]

Ответить на тему
 
Автор
Сообщение

Пост 11-Май-2012 20:39

[Q] 

дайсик

BBC: Разум Человека / BBC: The Human Mind
Год выпуска: 2003
Жанр: Научно-популярный
Продолжительность: 3 серий ~ по 00:49:00, общее время - 02:27:30
Перевод: Профессиональный (двухголосый)
Описание: Документальный фильм, совместного производства телерадиокомпании ВВС и лидера в области дистанционного высшего образования The Open University, попытается найти ответ, как работает разум человека, и как его можно использовать с максимальной эффективностью. Почему один человек чувствует опасность, а другой нет? Как может опыт подсказать нам, стоит ли доверять людям? И как дети осваивают сложные движения, просто думая о них? Ответ кроется в самой удивительной части каждого из нас, в нашем разуме. Каждую секунду бодрствования, хотя мы даже и не осознаем этого, наш разум работает, изучая окружающий мир. Но наша способность к познанию даже больше, чем мы думаем. Изучая принципы работы разума мы можем улучшить нашу познавательную способность и раскрыть свой истинный потенциал. Человек добился огромных успехов в изучении своего тела. Но разум человека до сих пор остается загадкой.
Качество: DVDRip
Формат: AVI
Видео кодек: DivX
Аудио кодек: AC3
Видео: 720x416 (1.73:1), 25 fps, DivX Codec 5.x or 6.x ~1699 kbps avg, 0.23 bit/pixel
Аудио: 48 kHz, AC3 Dolby Digital, 2/0 (L,R) ch, ~256.00 kbps avg
Будь умнее / Get Smart. Как разум человека познает окружающий мир? Мы узнаем об удивительном лекарстве, способном превратить любого человека из вялого лежебоки в образцово-показательного работника.
Индивидуальность / Personality. Как разум создает нашу личность и делает нас теми, кто мы есть? Мы попробуем выяснить, как можно повлиять на наши характеры, чтобы стать счастливее.
Заводим друзей / Making Friends. Как наш разум помогает нам заводить друзей и влиять на людей? Мы увидим эксперименты, раскрывающие скрытый потенциал нашего разума, узнаем, как определить рады ли нас видеть, и как подобный опыт может показать нам, кому доверять.
Полное имя : H:\BBC\Разум Человека (The Human Mind)\1 - Стань Умнее (Get Smart).avi
Формат : AVI
Формат/Информация : Audio Video Interleave
Размер файла : 700 Мбайт
Продолжительность : 49 м.
Общий поток : 1989 Кбит/сек
Программа кодирования : VirtualDubMod 1.5.4.1 (build 2178/release)
Библиотека кодирования : VirtualDubMod build 2178/release
Видео
Идентификатор : 0
Формат : MPEG-4 Visual
Параметр BVOP формата : Да
Параметр QPel формата : Нет
Параметр GMC формата : Без точки перехода
Параметр матрицы формата : Default (H.263)
Режим смешивания : Сжатый битовый поток
Идентификатор кодека : DX50
Идентификатор кодека/Подсказка : DivX 5
Продолжительность : 49 м.
Битрейт : 1727 Кбит/сек
Ширина : 720 пикс.
Высота : 416 пикс.
Соотношение сторон : 16:9
Частота кадров : 25,000 кадр/сек
Цветовое пространство : YUV
Подвыборка цветности : 4:2:0
Битовая глубина : 8 бит
Тип развёртки : Прогрессивная
Метод сжатия : С потерями
Бит/(Пиксели*Кадры) : 0.231
Размер потока : 608 Мбайт (87%)
Библиотека кодирования : DivX 6.8.3-6.8.4 (UTC 2008-06-07)
Аудио
Идентификатор : 1
Формат : AC-3
Формат/Информация : Audio Coding 3
Расширение режима : CM (complete main)
Идентификатор кодека : 2000
Продолжительность : 49 м.
Вид битрейта : Постоянный
Битрейт : 256 Кбит/сек
Канал(ы) : 2 канала(ов)
Расположение каналов : Front: L R
Частота : 48,0 КГц
Битовая глубина : 16 бит
Метод сжатия : С потерями
Размер потока : 90,1 Мбайт (13%)
Выравнивание : Соединение по промежуткам
Продолжительность промежутка : 96 мс. (2,40 видеокадров)
Время предзагрузки промежутка : 96 ms
Язык : Russian
Download / Скачать

Хотите скачать бесплатно? Зарегистрируйтесь на сайте (ссылка на регистрацию). Pirat.ca - самый быстрый торрент трекер в рунете!

Как скачивать  ·   Что такое торрент  ·   Рейтинг и ограничения

Дядя Витя

53870

Пост 12-Май-2012 16:12 (спустя 19 часов)

[Q] 


_________________
?
[Профиль]  [ЛС] 

Guppy

Пост 09-Мар-2014 10:55 (спустя 1 год 9 месяцев)

[Q] 

Ща кааааак скачаю и кааааак поумнею !
Раздающему спасибо!
[Профиль]  [ЛС] 
Показать сообщения:    
Ответить на тему

Текущее время: Сегодня 16:12

Часовой пояс: GMT + 4



Вы не можете начинать темы
Вы не можете отвечать на сообщения
Вы не можете редактировать свои сообщения
Вы не можете удалять свои сообщения
Вы не можете голосовать в опросах
Вы не можете прикреплять файлы к сообщениям
Вы не можете скачивать файлы

▼ Вниз