ML
     
  Уважаемый Гость!
Вы можете поддержать проект и зарегистрироваться у наших партнеров - онлайн-стратегия MyLands. При регистрации в игре Вы получите код, который сможете активировать после регистрации на pirat.ca и получить 1000 дублонов.

Ваш код:
e6008d9811a0b6a1393c3dc51ecd7bc35637bc21
 
     

BBC: Рождение и смерть звезд / BBC: The Death star (Карен Келли) [2001 г., Документальный, TVRip]

Ответить на тему
 
Автор
Сообщение

Пост 11-Май-2012 20:46

[Q] 

дайсик

BBC: Рождение и смерть звезд
BBC: The Death star

Год выпуска: 2001
Страна: Великобритания
Жанр: Документальный
Продолжительность: 49:12
Перевод: Профессиональный (одноголосый)
Режиссер: Карен Келли
Описание:
Фильм о рождении и смерти звезд в отдаленных галактиках. Эти процессы обычно сопровождаются гигантскими ядерными взрывами. В годы холодной войны американские военные принимали излучения от космических взрывов за советские ядерные испытания. Позднее был установлен галактический источник этих излучений.
Качество: TVRip
Формат: AVI
Видео кодек: DivX
Аудио кодек: MP3
Видео: DivX 5.2.1, 512 x 384 (4:3), 25.000 fps, 1506 kb/s, 0.306 bit/frame.
Аудио: 0x0055 MPEG-1 Layer 3, 44100Hz 129 kb/s , Monophonic
Полное имя : H:\BBC\BBC - Рождение и смерть звёзд .avi
Формат : AVI
Формат/Информация : Audio Video Interleave
Размер файла : 580 Мбайт
Продолжительность : 49 м.
Общий поток : 1647 Кбит/сек
Программа кодирования : Nandub v1.0rc2
Библиотека кодирования : Nandub build 1853/release
Видео
Идентификатор : 0
Формат : MPEG-4 Visual
Параметр BVOP формата : Да
Параметр QPel формата : Нет
Параметр GMC формата : Без точки перехода
Параметр матрицы формата : Default (H.263)
Режим смешивания : Сжатый битовый поток
Идентификатор кодека : DX50
Идентификатор кодека/Подсказка : DivX 5
Продолжительность : 49 м.
Битрейт : 1506 Кбит/сек
Ширина : 512 пикс.
Высота : 384 пикс.
Соотношение сторон : 4:3
Частота кадров : 25,000 кадр/сек
Цветовое пространство : YUV
Подвыборка цветности : 4:2:0
Битовая глубина : 8 бит
Тип развёртки : Прогрессивная
Метод сжатия : С потерями
Бит/(Пиксели*Кадры) : 0.306
Размер потока : 530 Мбайт (91%)
Библиотека кодирования : DivX 5.2.1 (WaffleDay) (UTC 2004-09-08)
Аудио
Идентификатор : 1
Формат : MPEG Audio
Версия формата : Version 1
Профиль формата : Layer 3
Идентификатор кодека : 55
Идентификатор кодека/Подсказка : MP3
Продолжительность : 49 м.
Вид битрейта : Переменный
Битрейт : 129 Кбит/сек
Минимальный битрейт : 128 Кбит/сек
Канал(ы) : 1 канал
Частота : 44,1 КГц
Метод сжатия : С потерями
Размер потока : 45,3 Мбайт (8%)
Выравнивание : Соединение по промежуткам
Продолжительность промежутка : 26 мс. (0,65 видеокадр)
Время предзагрузки промежутка : 499 ms
Библиотека кодирования : LAME3.92
Настройки программы : -m m -V 2 -q 2 -lowpass 18.7 --vbr-old -b 128
Download / Скачать

Хотите скачать бесплатно? Зарегистрируйтесь на сайте (ссылка на регистрацию). Pirat.ca - самый быстрый торрент трекер в рунете!

Как скачивать  ·   Что такое торрент  ·   Рейтинг и ограничения

Показать сообщения:    
Ответить на тему

Текущее время: Сегодня 01:59

Часовой пояс: GMT + 4



Вы не можете начинать темы
Вы не можете отвечать на сообщения
Вы не можете редактировать свои сообщения
Вы не можете удалять свои сообщения
Вы не можете голосовать в опросах
Вы не можете прикреплять файлы к сообщениям
Вы не можете скачивать файлы

▼ Вниз