ML
     
  Уважаемый Гость!
Вы можете поддержать проект и зарегистрироваться у наших партнеров - онлайн-стратегия MyLands. При регистрации в игре Вы получите код, который сможете активировать после регистрации на pirat.ca и получить 1000 дублонов.

Ваш код:
a6d1ef7ff63e237add5a4c8b21d8aa937c5e9b4b
 
     

BBC: Сатурн - повелитель колец / Saturn - Lord of the Rings [2005 г., Документальный, SATRip]

Ответить на тему
 
Автор
Сообщение

Пост 11-Май-2012 20:52

[Q] 

дайсик

BBC: Сатурн - повелитель колец / Saturn - Lord of the Rings
Год выпуска: 2005
Страна: Великобритания
Жанр: Документальный
Продолжительность: 00:48:53
Перевод: Профессиональный (одноголосый)
Описание: Со своими знаменитыми кольцами, Сатурн является наиболее отдаленной планетой видной невооруженным глазом. Для изучения планеты в деталях, 15 октября 1997 года к Сатурну был запущен корабль.
В этом фильме будет рассказано о Сатурне, его кольцах, спутниках и космической программе Сassini-Huygens - исскуственном спутнике Сатурна Cassini и спускаемом аппарате на спутник Сатурна Титан - Huygens.
Качество: SATRip
Формат: AVI
Видео кодек: DivX
Аудио кодек: MP3
Видео: DivX 5 576x432 25.00fps 1499Kbps
Аудио: MPEG Audio Layer 3 48000Hz stereo 128Kbps
Полное имя : H:\BBC\BBC_-_Saturn_-_Lord_of_the_Rings_[zehya;torrents.ufanet.ru].avi
Формат : DivX
Формат/Информация : Hack of AVI
Размер файла : 572 Мбайт
Продолжительность : 48 м.
Общий поток : 1637 Кбит/сек
Видео
Идентификатор : 0
Формат : MPEG-4 Visual
Параметр BVOP формата : Да
Параметр QPel формата : Нет
Параметр GMC формата : Без точки перехода
Параметр матрицы формата : Default (H.263)
Режим смешивания : Сжатый битовый поток
Идентификатор кодека : DX50
Идентификатор кодека/Подсказка : DivX 5
Продолжительность : 48 м.
Битрейт : 1499 Кбит/сек
Ширина : 576 пикс.
Высота : 432 пикс.
Соотношение сторон : 4:3
Частота кадров : 25,000 кадр/сек
Цветовое пространство : YUV
Подвыборка цветности : 4:2:0
Битовая глубина : 8 бит
Тип развёртки : Прогрессивная
Метод сжатия : С потерями
Бит/(Пиксели*Кадры) : 0.241
Размер потока : 524 Мбайт (92%)
Заголовок : Video
Библиотека кодирования : DivX 6.2.5 (UTC 2006-06-16)
Аудио
Идентификатор : 1
Формат : MPEG Audio
Версия формата : Version 1
Профиль формата : Layer 3
Идентификатор кодека : 55
Идентификатор кодека/Подсказка : MP3
Продолжительность : 48 м.
Вид битрейта : Постоянный
Битрейт : 128 Кбит/сек
Канал(ы) : 2 канала(ов)
Частота : 48,0 КГц
Метод сжатия : С потерями
Размер потока : 44,8 Мбайт (8%)
Выравнивание : Разделение по промежуткам
Продолжительность промежутка : 40 мс. (1,00 видеокадр)
Время предзагрузки промежутка : 50 ms
Заголовок : Audio
Download / Скачать

Хотите скачать бесплатно? Зарегистрируйтесь на сайте (ссылка на регистрацию). Pirat.ca - самый быстрый торрент трекер в рунете!

Как скачивать  ·   Что такое торрент  ·   Рейтинг и ограничения

Показать сообщения:    
Ответить на тему

Текущее время: Сегодня 13:38

Часовой пояс: GMT + 4



Вы не можете начинать темы
Вы не можете отвечать на сообщения
Вы не можете редактировать свои сообщения
Вы не можете удалять свои сообщения
Вы не можете голосовать в опросах
Вы не можете прикреплять файлы к сообщениям
Вы не можете скачивать файлы

▼ Вниз