ML
     
  Уважаемый Гость!
Вы можете поддержать проект и зарегистрироваться у наших партнеров - онлайн-стратегия MyLands. При регистрации в игре Вы получите код, который сможете активировать после регистрации на pirat.ca и получить 1000 дублонов.

Ваш код:
9cfe162481db953a6549f32179d7b3900b8b8643
 
     

BBC: Секреты Рейха. Тайны нацизма / BBC: Secrets of World War II (Части 1-6) (Джонатан Мартин) [1999 г., Документальный, DVDRip]

Ответить на тему
 
Автор
Сообщение

Пост 11-Май-2012 21:02

[Q] 

дайсик

BBC: Секреты Рейха. Тайны нацизма / BBC: Secrets of World War II
Год выпуска: 1999
Страна: Великобритания
Жанр: Документальный
Продолжительность: 6 частей ~ по 00:52:00, общее время - 05:20:00
Перевод: Профессиональный (одноголосый)
Режиссер: Джонатан Мартин
Описание:
Серия "Секреты Рейха. Тайны нацизма" представляет собой уникальную компиляцию из 300000 часов архивных киноматериалов времен Второй мировой войны, многие из которых даже сегодня выглядят сенсационными.Сочетание военной кинохроники, часть из которой представлена никогда не публиковавшимися ранее цветными (!) материалами, красочных карт и схем, а также компьютерной графики и специально аранжированной музыки великих композиторов - все это позволяет современному зрителю ярче и рельефнее представить и понять события тех далеких дней. Доп. информация:
Качество: DVDRip
Формат: AVI
Видео кодек: DivX
Аудио кодек: MP3
Видео: 720х544,кадров в секунду 25, 1762 Kbps, 0,18 b/px
Аудио: каналов 2, 48000 Hz, 113Kbps, MPEG 1 or 2 Audio Layer 3 (MP3)
Фильм 1. Последние дни Гитлера
В первом фильме серии представлены документальные кадры о последних днях жизни одного из самых зловещих и деспотичных диктаторов ХХ века, его взаимоотношениях с ближайшими соратниками и Евой Браун.
Фильм 2. Что случилось с Роммелем?
Роммель Эрвин (1891-1944) - выдающийся немецкий генерал - фельдмаршал времен Второй мировой войны. Успешно командовал немецкими войсками в Северной Африке (за что получил от союзников прозвище "Лиса пустыни"), затем - группой армий в Италии и Франции. Его заслуги перед Вермахтом высоко ценил Гитлер. Однако отношения Роммеля с партией нацистов были весьма натянутыми, так что его участие в заговоре 1944 года с целью убийства Гитлера считается весьма вероятным. Покончил ли легендарный генерал жизнь самоубийством или он был убит?..
Фильм 3. Окинава
История войн знает и более кровопролитные наземные сражения и более продолжительные воздушные кампании. Однако Окинава была и остается величайшей битвой, развертывавшейся в море и в воздухе одновременно, беспримерной по масштабам и ожесточенности...
Фильм 4. Битва на Гуадалканале
Сотни моряков, восемь военных кораблей, два адмирала - таковы потери американских вооруженных сил в ожесточенной и кровопролитной битве за остров Гуадалканал в Тихом океане. В этом сражении, наряду со множеством трагических ошибок, допущенных как американцами, так и японцами, были проявлены чудеса героизма и стойкости духа. С Гуадалканала начался разгром японских войск под командованием легендарного адмирала Ямамото...
Фильм 5. Подводные лодки
В фильме рассказывается о беспощадной и жестокой войне подводных лодок в Атлантике и на Тихом океане. Использование противниками последних достижений науки и техники, быстрый прогресс в радиоэлектронике (применение сонаров и противолодочных локаторов) сделали борьбу за превосходство под водой бескомпромиссной и захватывающей. Фильм 6. Бомбардировки Германии
В конце Второй Мировой войны американские бомбардировщики совершали до тысячи вылетов ежедневно, примерно такое же количество самолетов Великобритании бомбили Германию по ночам. В результате этих массированных бомбардировок, сопровождаемых огромными пожарами, были практически стерты с лица земли многие города Германии, ее промышленность и коммуникации.
Полное имя : H:\BBC\S_W_W\BBC(1) Secrets of World War II - Adolf Hitler's Last Days.avi
Формат : AVI
Формат/Информация : Audio Video Interleave
Размер файла : 700 Мбайт
Продолжительность : 52 м.
Общий поток : 1876 Кбит/сек
Программа кодирования : VirtualDubMod 1.5.4.1 (build 2178/release)
Библиотека кодирования : VirtualDubMod build 2178/release
Видео
Идентификатор : 0
Формат : MPEG-4 Visual
Параметр BVOP формата : Да
Параметр QPel формата : Нет
Параметр GMC формата : Без точки перехода
Параметр матрицы формата : Default (H.263)
Режим смешивания : Сжатый битовый поток
Идентификатор кодека : DX50
Идентификатор кодека/Подсказка : DivX 5
Продолжительность : 52 м.
Битрейт : 1749 Кбит/сек
Ширина : 720 пикс.
Высота : 544 пикс.
Соотношение сторон : 4:3
Частота кадров : 25,000 кадр/сек
Цветовое пространство : YUV
Подвыборка цветности : 4:2:0
Битовая глубина : 8 бит
Тип развёртки : Прогрессивная
Метод сжатия : С потерями
Бит/(Пиксели*Кадры) : 0.179
Размер потока : 653 Мбайт (93%)
Библиотека кодирования : DivX 6.6.1.4
Аудио
Идентификатор : 1
Формат : MPEG Audio
Версия формата : Version 1
Профиль формата : Layer 3
Режим : Joint stereo
Расширение режима : MS Stereo
Идентификатор кодека : 55
Идентификатор кодека/Подсказка : MP3
Продолжительность : 52 м.
Вид битрейта : Переменный
Битрейт : 113 Кбит/сек
Номинальный битрейт : 128 Кбит/сек
Канал(ы) : 2 канала(ов)
Частота : 48,0 КГц
Метод сжатия : С потерями
Размер потока : 42,3 Мбайт (6%)
Выравнивание : Соединение по промежуткам
Продолжительность промежутка : 24 мс. (0,60 видеокадр)
Время предзагрузки промежутка : 162 ms
Библиотека кодирования : LAME3.97
Настройки программы : -m j -V 4 -q 2 -lowpass 17 --abr 128
Download / Скачать

Хотите скачать бесплатно? Зарегистрируйтесь на сайте (ссылка на регистрацию). Pirat.ca - самый быстрый торрент трекер в рунете!

Как скачивать  ·   Что такое торрент  ·   Рейтинг и ограничения

undersone

Шкипер

Пост 08-Июл-2015 11:58 (спустя 3 года 1 месяц)

[Q] 

Подводные лодки - Враг над нами))
Конвой союзников - Враг под нами!!!
[Профиль]  [ЛС] 
Показать сообщения:    
Ответить на тему

Текущее время: Сегодня 06:02

Часовой пояс: GMT + 4



Вы не можете начинать темы
Вы не можете отвечать на сообщения
Вы не можете редактировать свои сообщения
Вы не можете удалять свои сообщения
Вы не можете голосовать в опросах
Вы не можете прикреплять файлы к сообщениям
Вы не можете скачивать файлы

▼ Вниз