ML
     
  Уважаемый Гость!
Вы можете поддержать проект и зарегистрироваться у наших партнеров - онлайн-стратегия MyLands. При регистрации в игре Вы получите код, который сможете активировать после регистрации на pirat.ca и получить 1000 дублонов.

Ваш код:
0fcd44bd35319f69313aa6e53b31c51cbff1c942
 
     

BBC: Что происходит с притяжением / BBC: Horizon. What on Earth is Wrong with Gravity (Марвин Д. Брайсон / Marvin D. Bryson) [2008 г., Документальный, научно-популярный, SATRip] MVO

Ответить на тему
 
Автор
Сообщение

Пост 07-Июн-2012 11:56

[Q] 

дайсик

-BBC: Что происходит с притяжением / BBC: Horizon. What on Earth is Wrong with Gravity -- Год выпуска: 2008
Производство: Великобритания
Жанр: Документальный, научно-популярный
Продолжительность серии: 00:48:42
Перевод: Профессиональный (одноголосый, закадровый)
Субтитры: RU, EN
Режиссер: Марвин Д. Брайсон / Marvin D. Bryson
Описание: Физик доктор Брайан Кокс пытается приблизиться к самым темным тайнам Вселенной. Осуществляя самый немыслимый эксперимент, который когда-либо ставился на Земле Брайан приходит к чему-то гораздо большему, чем просто понимание Притяжения.
Источник/Качество: SATRip
Формат: AVI
Видео кодек: XviD
Аудио кодек: MP2
Видео: 672x384 (1.750 (7:4)), 1674 kbps, 25 fps, 0.260 bit/frame
Аудио: 64kbps, 1ch, 32000Hz
Полное имя : H:\BBC\What on Earth is Wrong with Gravity\BBC.Horizon.What on Earth is Wrong with Gravity-rus.avi
Формат : AVI
Формат/Информация : Audio Video Interleave
Размер файла : 610 Мбайт
Продолжительность : 48 м.
Общий поток : 1751 Кбит/сек
Программа кодирования : Nandub v2.01 Расширенная технология сжатия разработана Neiromaster'ом
Библиотека кодирования : Nandub 2.01 modified by Neiromaster
Видео
Идентификатор : 0
Формат : MPEG-4 Visual
Профиль формата : Advanced [email protected]
Параметр BVOP формата : Да
Параметр QPel формата : Нет
Параметр GMC формата : Без точки перехода
Параметр матрицы формата : Default (H.263)
Идентификатор кодека : XVID
Идентификатор кодека/Подсказка : XviD
Продолжительность : 48 м.
Битрейт : 1677 Кбит/сек
Ширина : 672 пикс.
Высота : 384 пикс.
Соотношение сторон : 16:9
Частота кадров : 25,000 кадр/сек
Цветовое пространство : YUV
Подвыборка цветности : 4:2:0
Битовая глубина : 8 бит
Тип развёртки : Прогрессивная
Метод сжатия : С потерями
Бит/(Пиксели*Кадры) : 0.260
Размер потока : 584 Мбайт (96%)
Библиотека кодирования : XviD 1.2.0.dev47 (UTC 2006-11-01)
Аудио
Идентификатор : 1
Формат : MPEG Audio
Версия формата : Version 1
Профиль формата : Layer 2
Идентификатор кодека : 55
Идентификатор кодека/Подсказка : MP3
Продолжительность : 48 м.
Вид битрейта : Постоянный
Битрейт : 64,0 Кбит/сек
Канал(ы) : 1 канал
Частота : 32,0 КГц
Метод сжатия : С потерями
Размер потока : 22,3 Мбайт (4%)
Выравнивание : Соединение по промежуткам
Продолжительность промежутка : 36 мс. (0,90 видеокадр)
Время предзагрузки промежутка : 180 ms
Download / Скачать

Хотите скачать бесплатно? Зарегистрируйтесь на сайте (ссылка на регистрацию). Pirat.ca - самый быстрый торрент трекер в рунете!

Как скачивать  ·   Что такое торрент  ·   Рейтинг и ограничения

ElSkorpio

16

Пост 12-Май-2014 20:16 (спустя 1 год 11 месяцев)

[Q] 

Ку три раза

_________________
[Профиль]  [ЛС] 

rjycekmn

Штурман

Пост 30-Июл-2014 22:28 (спустя 2 месяца 18 дней)

[Q] 

о чём картина, ну наверна для нерусей британских норма, глянуть щтоле
[Профиль]  [ЛС] 
Показать сообщения:    
Ответить на тему

Текущее время: Сегодня 02:12

Часовой пояс: GMT + 4



Вы не можете начинать темы
Вы не можете отвечать на сообщения
Вы не можете редактировать свои сообщения
Вы не можете удалять свои сообщения
Вы не можете голосовать в опросах
Вы не можете прикреплять файлы к сообщениям
Вы не можете скачивать файлы

▼ Вниз