ML
     
  Уважаемый Гость!
Вы можете поддержать проект и зарегистрироваться у наших партнеров - онлайн-стратегия MyLands. При регистрации в игре Вы получите код, который сможете активировать после регистрации на pirat.ca и получить 1000 дублонов.

Ваш код:
4fbd9898b6f10799a3e8edf60f31febd2bc15453
 
     

BBC. Паразиты в организме человека / BBC. Body snatchers (Серии: 1-3) [2004 г., Документальный, TVRip]

Ответить на тему
 
Автор
Сообщение

Пост 08-Июн-2012 19:39

[Q] 

дайсик

-BBC. Паразиты в организме человека / BBC. Body snatchers -- Год выпуска: 2004
Производство: Великобритания
Жанр: Документальный
Продолжительность серии: 3 серий ~ по 00:44:00, общее время - 02:11:43
Перевод: Профессиональный (двухголосый)
Субтитры: отсутствуют
Описание: Новый проект BBC. Это исследование немного отталкивающего, но интересного мира животных-паразитов. Успешно эксплуатируя наши тела, они стали одними из самых опасных хищников на планете. Битва между паразитами и людьми длится уже тысячелетия и оказывает влияние на эволюцию обоих видов! Человеческое тело для паразитов - это зависимая колония и среда обитания...
В фильме исследуется история завоевания паразитами человеческих тел. Мы узнаём, что паразиты не только используют энергию тел своих жертв, но даже берут под контроль их поведение. Перед такой научно доказанной правдой меркнут фильмы ужасов про вторжение инопланетных существ! Три части этого шокирующего фильма BBC восстанавливают полную картину кровавой битвы. Мы получаем от учёных предостережение о том, что паразиты могут в конечном итоге победить. Шокирующие факты, кадры, истории из уст жертв паразитов! Узнай о паразитах всё!
СЛАБОНЕРВНЫМ НЕ СМОТРЕТЬ
Источник/Качество: TVRip
Формат: AVI
Видео кодек: XviD
Аудио кодек: MP3
Видео: 576x432 (4:3), 25,000 fps, 1064 kbps avg, 0.171 bit/pixel
Аудио: 44.100 kHz, 1 ch, 96.00 kbps avg
Формат : AVI
Формат/Информация : Audio Video Interleave
Размер файла : 363 Мбайт
Продолжительность : 43 м.
Общий поток : 1169 Кбит/сек
Программа кодирования : VirtualDubMod 1.5.4.1 (build 2066/release)
Библиотека кодирования : VirtualDubMod build 2066/release
Видео
Идентификатор : 0
Формат : MPEG-4 Visual
Профиль формата : Advanced [email protected]
Параметр BVOP формата : Да
Параметр QPel формата : Нет
Параметр GMC формата : Без точки перехода
Параметр матрицы формата : Default (H.263)
Режим смешивания : Сжатый битовый поток
Идентификатор кодека : XVID
Идентификатор кодека/Подсказка : XviD
Продолжительность : 43 м.
Битрейт : 1064 Кбит/сек
Ширина : 576 пикс.
Высота : 432 пикс.
Соотношение сторон : 4:3
Частота кадров : 25,000 кадр/сек
Цветовое пространство : YUV
Подвыборка цветности : 4:2:0
Битовая глубина : 8 бит
Тип развёртки : Прогрессивная
Метод сжатия : С потерями
Бит/(Пиксели*Кадры) : 0.171
Размер потока : 330 Мбайт (91%)
Библиотека кодирования : XviD 1.0.3 (UTC 2004-12-20)
Аудио
Идентификатор : 1
Формат : MPEG Audio
Версия формата : Version 1
Профиль формата : Layer 3
Идентификатор кодека : 55
Идентификатор кодека/Подсказка : MP3
Продолжительность : 43 м.
Вид битрейта : Постоянный
Битрейт : 96,0 Кбит/сек
Канал(ы) : 1 канал
Частота : 44,1 КГц
Метод сжатия : С потерями
Размер потока : 29,8 Мбайт (8%)
Выравнивание : Разделение по промежуткам
Продолжительность промежутка : 40 мс. (1,00 видеокадр)
Время предзагрузки промежутка : 500 ms
Библиотека кодирования : LAME3.92
Настройки программы : -m m -V 4 -q 2 -lowpass 18.7 -b 96
Download / Скачать

Хотите скачать бесплатно? Зарегистрируйтесь на сайте (ссылка на регистрацию). Pirat.ca - самый быстрый торрент трекер в рунете!

Как скачивать  ·   Что такое торрент  ·   Рейтинг и ограничения

Амангельды

35492

Пост 08-Июн-2012 20:03 (спустя 24 минуты)

[Q] 

Надо же братве где-то жить...

_________________

Товарищ, верь, пройдет она,
Так называемая гласность.
И вот тогда госбезопасность
Припомнит ваши имена
Раздачи от Амангельды - ТЫНЦ
[Профиль]  [ЛС] 

feldeger

1566

Пост 08-Июн-2012 20:41 (спустя 37 минут)

[Q] 

Жуть...

_________________
Полетел основной комп. Пауза...
[Профиль]  [ЛС] 

дайсик ®

5713

Пост 08-Июн-2012 21:04 (спустя 23 минуты)

[Q] 

самому страшно смотреть
[Профиль]  [ЛС] 

Пост 09-Июн-2012 16:48 (спустя 19 часов)

Топик был перенесен из форума Документальные фильмы и передачи в форум BBC

Степаныч
 
Показать сообщения:    
Ответить на тему

Текущее время: Сегодня 20:02

Часовой пояс: GMT + 4



Вы не можете начинать темы
Вы не можете отвечать на сообщения
Вы не можете редактировать свои сообщения
Вы не можете удалять свои сообщения
Вы не можете голосовать в опросах
Вы не можете прикреплять файлы к сообщениям
Вы не можете скачивать файлы

▼ Вниз