ML
     
  Уважаемый Гость!
Вы можете поддержать проект и зарегистрироваться у наших партнеров - онлайн-стратегия MyLands. При регистрации в игре Вы получите код, который сможете активировать после регистрации на pirat.ca и получить 1000 дублонов.

Ваш код:
e6008d9811a0b6a1393c3dc51ecd7bc35637bc21
 
     

Архивы ФБР: Гангстерская война в Филадельфии / FBI Archives: Gangsters war in Filadelfia (Discovery) [2009 г., Документальный, SATRip]

Ответить на тему
 
Автор
Сообщение

Пост 08-Дек-2011 23:48

[Q] 

UcrusPazzo

Архивы ФБР: Гангстерская война в Филадельфии -Год выпуска: 2009
Страна: США, Discovery Channel
Жанр: Документальный
Продолжительность: 00:48:29
Перевод: Профессиональный (одноголосый закадровый)-Описание: Жестокая борьба за власть разрывает город на части. Преступный клан раскалывается на две группировки, когда молодые и старые борются не на жизнь, а на смерть. ФБР оказывается между ними и проникает в синдикат. Отчаянно пытаясь прекратить жестокую войну вспыхнувшую на улицах Филадельфии.-Качество: SATMpeg2
Формат: MPEG
Видео: 544х576 (4:3); 1843 Кбит/сек; 25,000 кадров/сек
Аудио: 96,0 Кбит/сек; 1 канал; 48,0 КГц




Общее
Формат : MPEG-PS
Размер файла : 686 Мбайт
Продолжительность : 48 м.
Режим общего битрейта : Переменный
Общий поток : 1979 Кбит/сек
Видео
Идентификатор : 224 (0xE0)
Формат : MPEG Video
Версия формата : Version 2
Профиль формата : [email protected]
Параметр BVOP формата : Да
Параметр матрицы формата : Выборочная
Продолжительность : 48 м.
Вид битрейта : Переменный
Битрейт : 1843 Кбит/сек
Максимальный битрейт : 5000 Кбит/сек
Ширина : 544 пикселя
Высота : 576 пикселей
Соотношение сторон : 4:3
Частота кадров : 25,000 кадров/сек
Цветовое пространство : YUV
Субдискретизация насыщенности : 4:2:0
Битовая глубина : 8 бит
Тип развёртки : Чересстрочная
Порядок развёртки : Верхнее поле первое
Метод сжатия : С потерями
Бит/(Пиксели*Кадры) : 0.235
Размер потока : 639 Мбайт (93%)
Аудио
Идентификатор : 192 (0xC0)
Формат : MPEG Audio
Версия формата : Version 1
Профиль формата : Layer 2
Продолжительность : 48 м.
Вид битрейта : Постоянный
Битрейт : 96,0 Кбит/сек
Каналы : 1 канал
Частота : 48,0 КГц
Метод сжатия : С потерями
Задержка видео : 24 мс.
Размер потока : 33,3 Мбайт (5%)
Download / Скачать

Хотите скачать бесплатно? Зарегистрируйтесь на сайте (ссылка на регистрацию). Pirat.ca - самый быстрый торрент трекер в рунете!

Как скачивать  ·   Что такое торрент  ·   Рейтинг и ограничения

Показать сообщения:    
Ответить на тему

Текущее время: Сегодня 02:03

Часовой пояс: GMT + 4



Вы не можете начинать темы
Вы не можете отвечать на сообщения
Вы не можете редактировать свои сообщения
Вы не можете удалять свои сообщения
Вы не можете голосовать в опросах
Вы не можете прикреплять файлы к сообщениям
Вы не можете скачивать файлы

▼ Вниз