ML
     
  Уважаемый Гость!
Вы можете поддержать проект и зарегистрироваться у наших партнеров - онлайн-стратегия MyLands. При регистрации в игре Вы получите код, который сможете активировать после регистрации на pirat.ca и получить 1000 дублонов.

Ваш код:
fcd618d94adc1456bccbde5047c9cd0930e4ae4d
 
     

Discovery: Марихуана в законе / Discovery: Weed Wars (Сезон: 1,серия 1 из...?) (Discovery Communication) [2012 г., Документальный, SATRip] DVO

Ответить на тему
 
Автор
Сообщение

Пост 12-Июл-2012 23:35

[Q] 

GMCJimmy

Легенда

Discovery: Марихуана в законе / Discovery:Weed Wars
Год выпуска: 2012
Производство: США, Discovery Communication
Жанр: Документальный
Продолжительность серии: 00:44:04
Перевод: Профессиональный (двухголосый, закадровый)
Оригинальный аудиопоток: русский
Субтитры: отсутствуют
Режиссер: Discovery Communication
Описание: Документальная программа «Марихуана в законе» рассказывает о трудовых буднях магазина по продаже марихуаны в Калифорнии. В центре сюжета – оклендский Harborside Health Center, известнейший в Америке дистрибьютор медицинской марихуаны с обширной клиентурой, насчитывающей 94 000 человек. Владелец центра Стив ДеАнджело познакомит зрителей Discovery Channel со своим быстрорастущим бизнесом и расскажет о его особенностях и сложностях, которые приходится преодолевать, чтобы обеспечивать покупателей высококачественным товаром и одновременно способствовать национальной регуляции и законному налогообложению каннабиса.
Источник/Качество: SATRip
Формат: AVI
Видео кодек: XviD
Аудио кодек: AC3
Видео: 640x360, 30 fps, ~1830 kbps avgм
Аудио: 48 kHz, 2/0 (L,R) ch, ~128.00 kbps avg
Формат : AVI
Формат/Информация : Audio Video Interleave
Размер файла : 621 Мбайт
Продолжительность : 44 м.
Общий поток : 1970 Кбит/сек
Программа кодирования : VirtualDubMod 1.5.10.3 | www.virtualdub-fr.org || (build 2550/release)
Библиотека кодирования : VirtualDubMod build 2550/release
Видео
Идентификатор : 0
Формат : MPEG-4 Visual
Профиль формата : Advanced [email protected]
Параметр BVOP формата : 2
Параметр QPel формата : Нет
Параметр GMC формата : Без точки перехода
Параметр матрицы формата : Default (MPEG)
Идентификатор кодека : XVID
Идентификатор кодека/Подсказка : XviD
Продолжительность : 44 м.
Битрейт : 1830 Кбит/сек
Ширина : 640 пикселей
Высота : 360 пикселей
Соотношение сторон : 16:9
Частота кадров : 30,000 кадров/сек
Цветовое пространство : YUV
Субдискретизация насыщенности : 4:2:0
Битовая глубина : 8 бит
Тип развёртки : Прогрессивная
Метод сжатия : С потерями
Бит/(Пиксели*Кадры) : 0.265
Размер потока : 577 Мбайт (93%)
Библиотека кодирования : XviD 1.2.1 (UTC 2008-12-04)
Аудио
Идентификатор : 1
Формат : AC-3
Формат/Информация : Audio Coding 3
Расширение режима : CM (complete main)
Параметр Endianness формата : Big
Идентификатор кодека : 2000
Продолжительность : 44 м.
Вид битрейта : Постоянный
Битрейт : 128 Кбит/сек
Каналы : 2 канала
Расположение каналов : Front: L R
Частота : 48,0 КГц
Битовая глубина : 16 бит
Метод сжатия : С потерями
Размер потока : 40,3 Мбайт (6%)
Выравнивание : Разделение по промежуткам
Продолжительность промежутка : 33 мс. (1,00 видеокадр)
Время предзагрузки промежутка : 500 мс.
Download / Скачать

Хотите скачать бесплатно? Зарегистрируйтесь на сайте (ссылка на регистрацию). Pirat.ca - самый быстрый торрент трекер в рунете!

Как скачивать  ·   Что такое торрент  ·   Рейтинг и ограничения



Последний раз редактировалось: GMCJimmy (2012-07-13 11:03), всего редактировалось 3 раз(а)

Aviraelis

Морской Волк

24

Пост 07-Янв-2013 23:40 (спустя 5 месяцев 26 дней)

[Q] 

Клевенько)
[Профиль]  [ЛС] 

Klex

Морской Волк

Пост 29-Янв-2013 17:55 (спустя 21 день)

[Q] 

[Профиль]  [ЛС] 

DocSoft

Гроза морей

71

Пост 17-Апр-2014 01:49 (спустя 1 год 2 месяца)

[Q] 

Воот это надо заценить ) Лови бочку Зуб даю...

_________________
Всего одна Любовь !
[Профиль]  [ЛС] 
Показать сообщения:    
Ответить на тему

Текущее время: Сегодня 12:48

Часовой пояс: GMT + 4



Вы не можете начинать темы
Вы не можете отвечать на сообщения
Вы не можете редактировать свои сообщения
Вы не можете удалять свои сообщения
Вы не можете голосовать в опросах
Вы не можете прикреплять файлы к сообщениям
Вы не можете скачивать файлы

▼ Вниз