ML
     
  Уважаемый Гость!
Вы можете поддержать проект и зарегистрироваться у наших партнеров - онлайн-стратегия MyLands. При регистрации в игре Вы получите код, который сможете активировать после регистрации на pirat.ca и получить 1000 дублонов.

Ваш код:
500cb7bd8d2cec9a8aba647a87ce41c4b76f06bd
 
     

Сын весом в полтонны / Half Ton Teen (Джонатан Новзрадан / Jonathan Nowzaradan) [2009 г., Документальный, SATRip] (VO)

Ответить на тему
 
Автор
Сообщение

Пост 15-Дек-2011 12:56

[Q] 

me14

Сын весом в полтонны / Half Ton Teen
Год выпуска: 2009
Производство: США
Жанр: Документальный
Продолжительность: 01:27:53
Перевод: Профессиональный (одноголосый)
Режиссер: Джонатан Новзрадан / Jonathan Nowzaradan
В ролях: Билли Роббинс и его мать
Описание: Считается, что не бывает любви сильнее, чем материнская, но иногда сила этой любви слишком велика. Познакомьтесь с Билли Роббинсом и его матерью Барбарой Роббинс – главными героями программы «Сын весом в полтонны». Барбара потакала всем желаниям Билли, который обожал вкусно покушать, сидя у телевизора, и к восемнадцати годам его вес достиг почти 400 кг. Билли Роббинс стал самым полным подростком на свете, и когда ему исполнилось 19, врачи забили тревогу. Барбаре пришлось менять свои взгляды на материнскую любовь, чтобы не лишиться сына. Посмотрите, как мать и сын вместе делают шаги на пути к здоровью.-
Источник/Качество: SATRip
Формат: AVI
Видео кодек: XviD
Аудио кодек: MP3
Видео: XviD 544x288 25.00fps 1002Kbps
Аудио: MP3, MPEG Audio Layer 3 48000Hz stereo 128kbps
Формат : AVI
Формат/Информация : Audio Video Interleave
Размер файла : 358 MiB
Продолжительность : 43mn 53s
Общий поток : 1 140 Kbps
Программа кодирования : VirtualDubMod 1.5.10.2 (build 2542/release)
Библиотека кодирования : VirtualDubMod build 2542/release
Video
Идентификатор : 0
Формат : MPEG-4 Visual
Профиль формата : Advanced [email protected]
Параметр BVOP формата : 4
Параметр QPel формата : No
Параметр GMC формата : No warppoints
Параметр матрицы формата : Default (MPEG)
Идентификатор кодека : XVID
Идентификатор кодека/Подсказка : XviD
Продолжительность : 43mn 53s
Битрейт : 1 002 Kbps
Ширина : 544 pixels
Высота : 288 pixels
Соотношение сторон : 1.889
Частота кадров : 25.000 fps
Цветовое пространство : YUV
Подвыборка цветности : 4:2:0
Битовая глубина : 8 bits
Тип развёртки : Progressive
Метод сжатия : Lossy
Бит/(Пиксели*Кадры) : 0.256
Размер потока : 315 MiB (88%)
Библиотека кодирования : XviD 1.2.1 (UTC 2008-12-04)
Audio
Идентификатор : 1
Формат : MPEG Audio
Версия формата : Version 1
Профиль формата : Layer 3
Режим : Joint stereo
Расширение режима : MS Stereo
Идентификатор кодека : 55
Идентификатор кодека/Подсказка : MP3
Продолжительность : 43mn 53s
Вид битрейта : Constant
Битрейт : 128 Kbps
Канал(ы) : 2 channels
Частота : 48.0 KHz
Метод сжатия : Lossy
Задержка видео : 4ms
Размер потока : 40.2 MiB (11%)
Выравнивание : Split accross interleaves
Продолжительность промежутка : 40 ms (1.00 video frame)
Время предзагрузки промежутка : 500 ms
Библиотека кодирования : LAME3.98.2





-
Download / Скачать

Хотите скачать бесплатно? Зарегистрируйтесь на сайте (ссылка на регистрацию). Pirat.ca - самый быстрый торрент трекер в рунете!

Как скачивать  ·   Что такое торрент  ·   Рейтинг и ограничения

CCCPBess

Пост 05-Янв-2012 02:10 (спустя 20 дней)

[Q] 

Жесть --- посмотрим =)
[Профиль]  [ЛС] 

terrex

Пост 20-Июл-2014 09:17 (спустя 2 года 6 месяцев)

[Q] 

Не качает дайте скорости
[Профиль]  [ЛС] 
Показать сообщения:    
Ответить на тему

Текущее время: Сегодня 01:46

Часовой пояс: GMT + 4



Вы не можете начинать темы
Вы не можете отвечать на сообщения
Вы не можете редактировать свои сообщения
Вы не можете удалять свои сообщения
Вы не можете голосовать в опросах
Вы не можете прикреплять файлы к сообщениям
Вы не можете скачивать файлы

▼ Вниз