ML
     
  Уважаемый Гость!
Вы можете поддержать проект и зарегистрироваться у наших партнеров - онлайн-стратегия MyLands. При регистрации в игре Вы получите код, который сможете активировать после регистрации на pirat.ca и получить 1000 дублонов.

Ваш код:
73640f24f8a0f579e128ea7346fd2db2b1009143
 
     

Discovery: Адские трассы / Hell roads (Lorraine DiRienzo) [2012, документальный, SATRip]

Ответить на тему
 
Автор
Сообщение

Пост 06-Дек-2012 01:23

[Q] 

UcrusPazzo

Адские трассы / Hell roads -Год выпуска: 2012
Страна: США, V2 Films
Жанр: документальный
Продолжительность: 00:44:18
Перевод: Профессиональный (двухголосый)
Русские субтитры: нет
Премьера (РФ): 5 декабря 2012-Режиссер: Lorraine DiRienzo
Продюсер: Энтони Амойя, Майкл Амойя, Jerome F. Calimeri- -Описание: В мире есть восемь "адских трасс", полных коварных опасностей. Познакомьтесь с людьми, которым не страшны лавины, камнепады и даже перестрелки, и которые ездят по этим магистралям.-Качество: SATRip
Формат: AVI
Видео кодек: XviD
Аудио кодек: MP3
Видео: 740x420 (1.76:1), 30 fps, XviD MPEG-4 ~1799 kbps avg, 0.19 bit/pixel
Аудио: 48 kHz, MPEG Layer 3, 2 ch, ~128.03 kbps avg
Общее
Формат : AVI
Формат/Информация : Audio Video Interleave
Размер файла : 615 Мбайт
Продолжительность : 44 м.
Общий поток : 1941 Кбит/сек
Программа кодирования : Lavf54.9.100
Видео
Идентификатор : 0
Формат : MPEG-4 Visual
Профиль формата : [email protected]
Параметр BVOP формата : Нет
Параметр QPel формата : Нет
Параметр GMC формата : Без точки перехода
Параметр матрицы формата : Default (H.263)
Идентификатор кодека : XVID
Идентификатор кодека/Подсказка : XviD
Продолжительность : 44 м.
Битрейт : 1800 Кбит/сек
Ширина : 740 пикселей
Высота : 420 пикселей
Соотношение сторон : 16:9
Частота кадров : 30,000 кадров/сек
Цветовое пространство : YUV
Субдискретизация насыщенности : 4:2:0
Битовая глубина : 8 бит
Тип развёртки : Прогрессивная
Метод сжатия : С потерями
Бит/(Пиксели*Кадры) : 0.193
Размер потока : 570 Мбайт (93%)
Библиотека кодирования : Lavc54.27.100
Аудио
Идентификатор : 1
Формат : MPEG Audio
Версия формата : Version 1
Профиль формата : Layer 3
Режим : Joint stereo
Расширение режима : MS Stereo
Идентификатор кодека : 55
Идентификатор кодека/Подсказка : MP3
Продолжительность : 44 м.
Вид битрейта : Постоянный
Битрейт : 128 Кбит/сек
Каналы : 2 канала
Частота : 48,0 КГц
Метод сжатия : С потерями
Размер потока : 40,6 Мбайт (7%)
Выравнивание : Соединение по промежуткам
Продолжительность промежутка : 24 мс. (0,72 видеокадр)
Время предзагрузки промежутка : 23 мс.
Библиотека кодирования : LAME3.99.5
Download / Скачать

Хотите скачать бесплатно? Зарегистрируйтесь на сайте (ссылка на регистрацию). Pirat.ca - самый быстрый торрент трекер в рунете!

Как скачивать  ·   Что такое торрент  ·   Рейтинг и ограничения



Последний раз редактировалось: UcrusPazzo (2012-12-11 00:37), всего редактировалось 1 раз

me14

999

Пост 06-Дек-2012 18:45 (спустя 17 часов)

[Q] 


_________________
Если вы все еще не забанены - это не ваша заслуга, а модераторская недоработка.
[Профиль]  [ЛС] 

Litus21

Штурман

Пост 06-Июн-2014 16:11 (спустя 1 год 5 месяцев)

[Q] 

Спасибо!!! посмотрим !
[Профиль]  [ЛС] 

croxus

Корсар

6

Пост 15-Мар-2016 20:45 (спустя 1 год 9 месяцев)

[Q] 

Спасибо!!!Хороший фильм!!!
[Профиль]  [ЛС] 
Показать сообщения:    
Ответить на тему

Текущее время: Сегодня 22:30

Часовой пояс: GMT + 4



Вы не можете начинать темы
Вы не можете отвечать на сообщения
Вы не можете редактировать свои сообщения
Вы не можете удалять свои сообщения
Вы не можете голосовать в опросах
Вы не можете прикреплять файлы к сообщениям
Вы не можете скачивать файлы

▼ Вниз