ML
     
  Уважаемый Гость!
Вы можете поддержать проект и зарегистрироваться у наших партнеров - онлайн-стратегия MyLands. При регистрации в игре Вы получите код, который сможете активировать после регистрации на pirat.ca и получить 1000 дублонов.

Ваш код:
2932e5898d0a27592397f70b82a5834d1e70ea19
 
     

Динамо: невероятный иллюзионист / Dynamo: Magician Impossible (Сезон: 1-2, Серии: 1-8) (Simon Dinsell, Марк МакКуин) [2011-2012 гг., документальный, шоу, фокусы, DVDRip, SATRip] VO

Ответить на тему
 
Автор
Сообщение

Пост 15-Дек-2012 13:51

[Q] 

UcrusPazzo

Динамо: невероятный иллюзионист / Dynamo: Magician Impossible
-Производство: Великобритания,
Жанр: документальный, шоу, фокусы
Год выпуска: 2011-2012 гг.
Продолжительность: 00:43:00
Мировая премьера: 7 июля 2011
Российская премьера: 8 апреля 2012
Перевод: Профессиональный (одноголосый, закадровый)-Режиссер: Simon Dinsell, Марк МакКуин
Продюсер: Dan Albion, Люси Энсбро, Пол Кук
Художник: Рози Дав-В ролях: Dynamo, Мэтью Хорн, Кимберли Уайатт, Ян Браун, Ноэль Филдинг, Кэти Лармур, Джессика Лаундес, Принц Чарльз, Роберт Шиэн, Трей Сонгз-Описание: Вы верите в чудеса? Тогда новая программа Discovery Channel «Динамо: невероятный иллюзионист» предназначена именно для вас: трюки, которые устраивает британский фокусник Динамо, сложно объяснить одной лишь ловкостью рук. Иллюзионист покажет свои самые захватывающие номера. Вы увидите, как снег со склонов австрийских гор превращается в бриллианты, как крылья бабочки становятся зеленым древесным листом, как монета проникает сквозь стекло, как мобильный телефон необъяснимым образом оказывается внутри стеклянной бутылки с узким горлышком и как артист демонстрирует чудеса левитации, уподобляясь Нео из фильма «Матрица». Ассистентами Динамо станут мировые знаменитости, в том числе легенда рок-музыки Иэн Браун.-Качество видео: DVDRip (1 сезон) SATRip (2 сезон)
Формат видео: MKV, AVI
Видео кодек: H.264, XviD
Аудио кодек: AC3, MP3
Видео (1 сезон): 720*400 (16:9); в 25,000 кадров\сек; AVC (Header stripping) ([email protected]) (CABAC \ 4 Ref Frames)
Аудио (1 сезон): Russian; 192 Кбит/сек; 48,0 КГц; 2 канала; MPEG Audio (MP2) (Header stripping) (Version 1) (Layer 2)
Аудио #2 (1 сезон): English; 48,0 КГц; 2 канала, AAC (LC)
Видео (2 сезон): 704x400 (1.76:1), 25 fps, XviD build 50 ~1900 kbps avg, 0.27 bit/pixel
Аудио (2 сезон): 48 kHz, MPEG Layer 3, 2 ch, ~128.00 kbps avg
Cубтитры: отсутствуют
Общее
Уникальный идентификатор : 199305209729442100128031060023785252932 (0x95F0C9829951914992F8EC5CDEEF6844)
Формат : Matroska
Версия формата : Version 2
Размер файла : 312 Мбайт
Продолжительность : 43 м.
Общий поток : 1011 Кбит/сек
Дата кодирования : UTC 2012-04-10 03:02:14
Программа кодирования : mkvmerge v5.5.0 ('Healer') built on Apr 6 2012 21:43:24
Библиотека кодирования : libebml v1.2.3 + libmatroska v1.3.0
Видео
Идентификатор : 1
Формат : AVC
Формат/Информация : Advanced Video Codec
Профиль формата : [email protected]
Параметр CABAC формата : Да
Параметр ReFrames формата : 4 кадра
Режим смешивания : Header stripping
Идентификатор кодека : V_MPEG4/ISO/AVC
Продолжительность : 43 м.
Номинальный битрейт : 705 Кбит/сек
Ширина : 720 пикселей
Высота : 400 пикселей
Соотношение сторон : 16:9
Соотношение сторон в оригинале : 16:9
Режим частоты кадров : Постоянный
Частота кадров : 25,000 кадров/сек
Цветовое пространство : YUV
Субдискретизация насыщенности : 4:2:0
Битовая глубина : 8 бит
Тип развёртки : Прогрессивная
Бит/(Пиксели*Кадры) : 0.098
Библиотека кодирования : x264 core 112
Настройки программы : cabac=1 / ref=2 / deblock=1:0:0 / analyse=0x1:0x111 / me=hex / subme=6 / psy=1 / psy_rd=1.00:0.00 / mixed_ref=0 / me_range=16 / chroma_me=1 / trellis=0 / 8x8dct=0 / cqm=0 / deadzone=21,11 / fast_pskip=1 / chroma_qp_offset=-2 / threads=6 / sliced_threads=0 / nr=0 / decimate=1 / interlaced=0 / constrained_intra=0 / bframes=2 / b_pyramid=2 / b_adapt=1 / b_bias=0 / direct=1 / weightb=0 / open_gop=0 / weightp=2 / keyint=250 / keyint_min=25 / scenecut=40 / intra_refresh=0 / rc_lookahead=40 / rc=2pass / mbtree=1 / bitrate=705 / ratetol=1.0 / qcomp=0.60 / qpmin=3 / qpmax=51 / qpstep=4 / cplxblur=20.0 / qblur=0.5 / ip_ratio=1.40 / aq=1:1.00
Default : Да
Forced : Нет
Основные цвета : BT.601 NTSC
Характеристики трансфера : BT.709
Коэффициенты матрицы : BT.601
Аудио #1
Идентификатор : 2
Формат : MPEG Audio
Версия формата : Version 1
Профиль формата : Layer 2
Режим смешивания : Header stripping
Идентификатор кодека : A_MPEG/L2
Идентификатор кодека/Подсказка : MP2
Продолжительность : 43 м.
Вид битрейта : Постоянный
Битрейт : 192 Кбит/сек
Каналы : 2 канала
Частота : 48,0 КГц
Метод сжатия : С потерями
Размер потока : 59,2 Мбайт (19%)
Язык : Russian
Default : Да
Forced : Нет
Аудио #2
Идентификатор : 3
Формат : AAC
Формат/Информация : Advanced Audio Codec
Профиль формата : LC
Идентификатор кодека : A_AAC
Продолжительность : 43 м.
Каналы : 2 канала
Расположение каналов : Front: L R
Частота : 48,0 КГц
Метод сжатия : С потерями
Язык : English
Default : Нет
Forced : Нет
Общее
Формат : AVI
Формат/Информация : Audio Video Interleave
Размер файла : 642 Мбайт
Продолжительность : 44 м.
Общий поток : 2038 Кбит/сек
Программа кодирования : VirtualDubMod 1.5.10.3 | www.virtualdub-fr.org || (build 2550/release)
Библиотека кодирования : VirtualDubMod build 2550/release
Видео
Идентификатор : 0
Формат : MPEG-4 Visual
Профиль формата : Advanced [email protected]
Параметр BVOP формата : 1
Параметр QPel формата : Нет
Параметр GMC формата : Без точки перехода
Параметр матрицы формата : Default (MPEG)
Идентификатор кодека : DX50
Идентификатор кодека/Подсказка : DivX 5
Продолжительность : 44 м.
Битрейт : 1900 Кбит/сек
Ширина : 704 пикселя
Высота : 400 пикселей
Соотношение сторон : 16:9
Частота кадров : 25,000 кадров/сек
Цветовое пространство : YUV
Субдискретизация насыщенности : 4:2:0
Битовая глубина : 8 бит
Тип развёртки : Прогрессивная
Метод сжатия : С потерями
Бит/(Пиксели*Кадры) : 0.270
Размер потока : 599 Мбайт (93%)
Библиотека кодирования : XviD 1.2.1 (UTC 2008-12-04)
Аудио
Идентификатор : 1
Формат : MPEG Audio
Версия формата : Version 1
Профиль формата : Layer 3
Идентификатор кодека : 55
Идентификатор кодека/Подсказка : MP3
Продолжительность : 44 м.
Вид битрейта : Постоянный
Битрейт : 128 Кбит/сек
Каналы : 2 канала
Частота : 48,0 КГц
Метод сжатия : С потерями
Размер потока : 40,3 Мбайт (6%)
Выравнивание : Соединение по промежуткам
Продолжительность промежутка : 40 мс. (1,00 видеокадр)
Время предзагрузки промежутка : 504 мс.
Библиотека кодирования : L3.99r
Настройки программы : -m s -V 4 -q 2 -lowpass 17 -b 128
Download / Скачать

Хотите скачать бесплатно? Зарегистрируйтесь на сайте (ссылка на регистрацию). Pirat.ca - самый быстрый торрент трекер в рунете!

Как скачивать  ·   Что такое торрент  ·   Рейтинг и ограничения

me14

999

Пост 20-Дек-2012 23:01 (спустя 5 дней)

[Q] 


_________________
Если вы все еще не забанены - это не ваша заслуга, а модераторская недоработка.
[Профиль]  [ЛС] 

sanches997

Морской Волк

Пост 07-Июн-2013 18:45 (спустя 5 месяцев 17 дней)

[Q] 

[Профиль]  [ЛС] 
Показать сообщения:    
Ответить на тему

Текущее время: Сегодня 08:05

Часовой пояс: GMT + 4



Вы не можете начинать темы
Вы не можете отвечать на сообщения
Вы не можете редактировать свои сообщения
Вы не можете удалять свои сообщения
Вы не можете голосовать в опросах
Вы не можете прикреплять файлы к сообщениям
Вы не можете скачивать файлы

▼ Вниз