ML
     
  Уважаемый Гость!
Вы можете поддержать проект и зарегистрироваться у наших партнеров - онлайн-стратегия MyLands. При регистрации в игре Вы получите код, который сможете активировать после регистрации на pirat.ca и получить 1000 дублонов.

Ваш код:
a978488e62322cd72e113ab723b8a7fdc10eb9b9
 
     

Кодекс Мафии: Взгляд Изнутри / Inside the Gangster's Code / Сезон: 1 / Серии: 1-5 из 5 (Ким Флиткрофт / Kim Flitcroft) [2013 г., документальный сериал, HDTVRip] VO

Ответить на тему
 
Автор
Сообщение

Пост 19-Май-2013 14:11

[Q] 

Gweg

-Кодекс Мафии: Взгляд Изнутри / Inside the Gangster's Code -- Производство: Великобритания, Discovery Networks International
Жанр: документальный
Год выпуска: 2013 г.
Продолжительность:5x~ 00:43:00
Мировая премьера: 27 февраля 2013
Перевод: Профессиональный (одноголосый, закадровый)
Режиссер: Ким Флиткрофт / Kim Flitcroft-Описание: Думаете все что показывают в фильмах о бандитах правда? Вы сильно ошибаетесь! В новой документальной передаче - бывший гангстер Лу Ферранте и его уникальный рассказ о том, как устроена мафия.-
Качество видео: HDTVRip
Контейнер: AVI
Видео кодек: XviD
Аудио кодек: AC3
Видео: 704x400 (1.76:1), 25 fps, XviD build 50 ~1799 kbps avg, 0.26 bit/pixel
Аудио: 48 kHz, AC3 Dolby Digital, 2/0 (L,R) ch, ~192 kbps
Cубтитры: отсутствуют
Формат : AVI
Формат/Информация : Audio Video Interleave
Размер файла : 626 Мбайт
Продолжительность : 43 м.
Общий поток : 2002 Кбит/сек
Программа кодирования : VirtualDubMod 1.5.10.3 | www.virtualdub-fr.org || (build 2550/release)
Библиотека кодирования : VirtualDubMod build 2550/release
Видео
Идентификатор : 0
Формат : MPEG-4 Visual
Профиль формата : Advanced [email protected]
Параметр BVOP формата : 2
Параметр QPel формата : Нет
Параметр GMC формата : Без точки перехода
Параметр матрицы формата : Default (MPEG)
Идентификатор кодека : XVID
Идентификатор кодека/Подсказка : XviD
Продолжительность : 43 м.
Битрейт : 1800 Кбит/сек
Ширина : 704 пикселя
Высота : 400 пикселей
Соотношение сторон : 16:9
Частота кадров : 25,000 кадров/сек
Цветовое пространство : YUV
Субдискретизация насыщенности : 4:2:0
Битовая глубина : 8 бит
Тип развёртки : Прогрессивная
Метод сжатия : С потерями
Бит/(Пиксели*Кадры) : 0.256
Размер потока : 563 Мбайт (90%)
Библиотека кодирования : XviD 1.2.1 (UTC 2008-12-04)
Аудио
Идентификатор : 1
Формат : AC-3
Формат/Информация : Audio Coding 3
Расширение режима : CM (complete main)
Параметр Endianness формата : Big
Идентификатор кодека : 2000
Продолжительность : 43 м.
Вид битрейта : Постоянный
Битрейт : 192 Кбит/сек
Каналы : 2 канала
Расположение каналов : Front: L R
Частота : 48,0 КГц
Битовая глубина : 16 бит
Метод сжатия : С потерями
Размер потока : 60,1 Мбайт (10%)
Выравнивание : Разделение по промежуткам
Продолжительность промежутка : 40 мс. (1,00 видеокадр)
Время предзагрузки промежутка : 500 мс.
Эпизод 01 - "18th Street, El Salvador"
Лу присоединяется к гангстерам 18-ой улицы в тюрьме и на воле, чтобы понять, почему их соперничество с МС-13 сеет смерть в Сальвадоре. Может ли кто-нибудь остановить эту войну?
Эпизод 02 - "The Commandos, Phillippines"
Бывший мафиози Лу Ферранте посещает Манилу на Филиппинах и встречается с одной из самых жестоких тюремных банд в мире - Коммандос. Он знакомится с жизнью манильских бандитов.
Эпизод 03 - "The Burqueños, USA"
Лу Ферранте посещает Альбукерке и встречается с одной из самых быстро растущих тюремных банд - Буркеньос. Как они набирают людей в банду, и насколько они угрожают своим соперникам?
Эпизод 04 - "The Camorra, Italy"
Лу едет в Неаполь, где обосновалась одна из самых старых и мощных мафий - Каморра. Недавно в городе обнаружили несколько трупов, что привлекло мировое внимание.
Эпизод 05 - "The Grypser Gang, Poland"
Лу едет в Польшу знакомиться с миром Грипсеров. Он также посещает ряд боссов и свидетеля, который теперь находится под постоянной вооруженной охраной.
Download / Скачать

Хотите скачать бесплатно? Зарегистрируйтесь на сайте (ссылка на регистрацию). Pirat.ca - самый быстрый торрент трекер в рунете!

Как скачивать  ·   Что такое торрент  ·   Рейтинг и ограничения

Показать сообщения:    
Ответить на тему

Текущее время: Сегодня 22:07

Часовой пояс: GMT + 4



Вы не можете начинать темы
Вы не можете отвечать на сообщения
Вы не можете редактировать свои сообщения
Вы не можете удалять свои сообщения
Вы не можете голосовать в опросах
Вы не можете прикреплять файлы к сообщениям
Вы не можете скачивать файлы

▼ Вниз