ML
     
  Уважаемый Гость!
Вы можете поддержать проект и зарегистрироваться у наших партнеров - онлайн-стратегия MyLands. При регистрации в игре Вы получите код, который сможете активировать после регистрации на pirat.ca и получить 1000 дублонов.

Ваш код:
193c38d0130f05c24de871678ea3ac181461757d
 
     

Пятёрка лучших / World's TOP 5 / Сезон: 1 / Серии: 1-6 из 6(Элйес Габель) [2012 г., Документальный, научно-познавательный, техника, SATRip] VO

Ответить на тему
 
Автор
Сообщение

Пост 02-Авг-2013 22:49

[Q] 

Seva78

-Пятёрка лучших / World's TOP 5-- Производство: США, Discovery Channel
Жанр: Документальный, научно-познавательный, техника
Год выпуска: 2012 г.
Продолжительность: 6 ~ 00:45:00
Перевод: Профессиональный (одноголосый, закадровый)
Режиссер: Элйес Габель
-Описание: "Пятерка лучших" - это новый документальный цикл на канале Дискавери, в котором представлены самые мощные, самые быстрые, самые совершенные автомобили, самолеты и поезда. В каждом новом выпуске встретятся пять представителей своего класса, чтобы начать беспрецедентное состязание. В этом соревновании участвуют не только транспортные средства, но и крупнейшие заводы и высочайшие небоскребы так же выступят в отдельном зачете. Экспертное жюри сравнит пять их основных характеристик и определит лучшего из лучших! Пять дисциплин по пять участников в каждой оцениваются по пяти критериям – и пять победителей в итоге!-
Познакомьтесь с лучшими самолетами мира, включая Еврофайтер Тайфун, Антонов-225 и Аэробус 380. Какой самолет окажется самым
крутым?
Формат : AVI
Формат/Информация : Audio Video Interleave
Размер файла : 596 Мбайт
Продолжительность : 43 м.
Общий поток : 1901 Кбит/сек
Программа кодирования : VirtualDubMod 1.5.10.3 | www.virtualdub-fr.org || (build 2550/release)
Библиотека кодирования : VirtualDubMod build 2550/release
Видео
Идентификатор : 0
Формат : MPEG-4 Visual
Профиль формата : Advanced [email protected]
Параметр BVOP формата : 2
Параметр QPel формата : Нет
Параметр GMC формата : Без точки перехода
Параметр матрицы формата : Default (H.263)
Режим смешивания : Сжатый битовый поток
Идентификатор кодека : XVID
Идентификатор кодека/Подсказка : XviD
Продолжительность : 43 м.
Битрейт : 1700 Кбит/сек
Ширина : 720 пикселей
Высота : 400 пикселей
Соотношение сторон : 16:9
Частота кадров : 25,000 кадров/сек
Цветовое пространство : YUV
Субдискретизация насыщенности : 4:2:0
Битовая глубина : 8 бит
Тип развёртки : Прогрессивная
Метод сжатия : С потерями
Бит/(Пиксели*Кадры) : 0.236
Размер потока : 532 Мбайт (89%)
Библиотека кодирования : XviD 1.2.1 (UTC 2008-12-04)
Аудио
Идентификатор : 1
Формат : AC-3
Формат/Информация : Audio Coding 3
Расширение режима : CM (complete main)
Параметр Endianness формата : Big
Идентификатор кодека : 2000
Продолжительность : 43 м.
Вид битрейта : Постоянный
Битрейт : 192 Кбит/сек
Каналы : 2 канала
Расположение каналов : Front: L R
Частота : 48,0 КГц
Битовая глубина : 16 бит
Метод сжатия : С потерями
Размер потока : 60,1 Мбайт (10%)
Выравнивание : Разделение по промежуткам
Продолжительность промежутка : 40 мс. (1,00 видеокадр)
Время предзагрузки промежутка : 500 мс.
Поезда - великие и разнообразные достижения инженерной мысли. Их делают так, что бы они могли выполнять широкий спектр задач.
Но кто из них чемпион мира?
Формат : AVI
Формат/Информация : Audio Video Interleave
Размер файла : 629 Мбайт
Продолжительность : 43 м.
Общий поток : 2001 Кбит/сек
Программа кодирования : VirtualDubMod 1.5.10.3 | www.virtualdub-fr.org || (build 2550/release)
Библиотека кодирования : VirtualDubMod build 2550/release
Видео
Идентификатор : 0
Формат : MPEG-4 Visual
Профиль формата : Advanced [email protected]
Параметр BVOP формата : 2
Параметр QPel формата : Да
Параметр GMC формата : 3 точки перехода
Параметр матрицы формата : Default (H.263)
Идентификатор кодека : XVID
Идентификатор кодека/Подсказка : XviD
Продолжительность : 43 м.
Битрейт : 1799 Кбит/сек
Ширина : 720 пикселей
Высота : 400 пикселей
Соотношение сторон : 16:9
Частота кадров : 25,000 кадров/сек
Цветовое пространство : YUV
Субдискретизация насыщенности : 4:2:0
Битовая глубина : 8 бит
Тип развёртки : Прогрессивная
Метод сжатия : С потерями
Бит/(Пиксели*Кадры) : 0.250
Размер потока : 566 Мбайт (90%)
Библиотека кодирования : XviD 1.2.1 (UTC 2008-12-04)
Аудио
Идентификатор : 1
Формат : AC-3
Формат/Информация : Audio Coding 3
Расширение режима : CM (complete main)
Параметр Endianness формата : Big
Идентификатор кодека : 2000
Продолжительность : 43 м.
Вид битрейта : Постоянный
Битрейт : 192 Кбит/сек
Каналы : 6 каналов
Расположение каналов : Front: L C R, Side: L R, LFE
Частота : 48,0 КГц
Битовая глубина : 16 бит
Метод сжатия : С потерями
Размер потока : 60,3 Мбайт (10%)
Выравнивание : Разделение по промежуткам
Продолжительность промежутка : 40 мс. (1,00 видеокадр)
Время предзагрузки промежутка : 500 мс.
В любое назначенное время пятьдесят тысяч кораблей по всему миру отправляются в плавание. Они перевозят миллионы пассажиров
и транспортируют девяносто процентов всех грузов. Это один из древнейших видов транспорта, созданных человеком. Но каким
должен быть лучший в мире корабль? Мы пристально рассмотрим эти чудеса света, бороздящие океаны. Какой корабль самый быстрый?
У какого самая высокая грузоподъемность? Какой корабль способен перевезти наибольшее количество пассажиров или обладает
наибольшей мощностью двигателя?В поисках великих творений гениев инженерного дела мы отправились в кругосветное путешествие,
проводя постоянные исследования, анализируя, сопоставляя, и все это для того, что бы выявить лучшего из лучших - величайший
корабль на Земле!..
Формат : AVI
Формат/Информация : Audio Video Interleave
Размер файла : 561 Мбайт
Продолжительность : 43 м.
Общий поток : 1783 Кбит/сек
Библиотека кодирования : VirtualDub build 34807/release
Видео
Идентификатор : 0
Формат : MPEG-4 Visual
Профиль формата : Advanced [email protected]
Параметр BVOP формата : 2
Параметр QPel формата : Нет
Параметр GMC формата : Без точки перехода
Параметр матрицы формата : Default (H.263)
Режим смешивания : Сжатый битовый поток
Идентификатор кодека : XVID
Идентификатор кодека/Подсказка : XviD
Продолжительность : 43 м.
Битрейт : 1645 Кбит/сек
Ширина : 720 пикселей
Высота : 400 пикселей
Соотношение сторон : 16:9
Частота кадров : 25,000 кадров/сек
Цветовое пространство : YUV
Субдискретизация насыщенности : 4:2:0
Битовая глубина : 8 бит
Тип развёртки : Прогрессивная
Метод сжатия : С потерями
Бит/(Пиксели*Кадры) : 0.229
Размер потока : 518 Мбайт (92%)
Библиотека кодирования : XviD 64
Аудио
Идентификатор : 1
Формат : MPEG Audio
Версия формата : Version 1
Профиль формата : Layer 3
Режим : Joint stereo
Расширение режима : MS Stereo
Идентификатор кодека : 55
Идентификатор кодека/Подсказка : MP3
Продолжительность : 43 м.
Вид битрейта : Постоянный
Битрейт : 128 Кбит/сек
Каналы : 2 канала
Частота : 48,0 КГц
Метод сжатия : С потерями
Размер потока : 40,3 Мбайт (7%)
Выравнивание : Разделение по промежуткам
Продолжительность промежутка : 40 мс. (1,00 видеокадр)
Время предзагрузки промежутка : 500 мс.
Крупнейшие в мире машины, созданные для перемещения земляных гор: от гигантских самосвалов до огромных проходческих
комплексов. Землеройная техника бывает разных форм и размеров: большая, очень большая и сверхбольшая! Но что делает
лучшие из землеройных машин таковыми? Рассмотрим эти чудеса техники поподробнее! Какая из землеройно-транспортных машин
самая тяжелая, самая грузоподъемная и может выполнять самые опасные работы?Мы пустились на поиски чемпиона среди крупнейших
творений инженерной мысли и искали, проверяли и сравнивали, что бы определить лучшую из лучших - величайшую землеройную
машину на планете!..
Формат : AVI
Формат/Информация : Audio Video Interleave
Размер файла : 630 Мбайт
Продолжительность : 44 м.
Общий поток : 2003 Кбит/сек
Программа кодирования : VirtualDubMod 1.5.10.3 | www.virtualdub-fr.org || (build 2550/release)
Библиотека кодирования : VirtualDubMod build 2550/release
Видео
Идентификатор : 0
Формат : MPEG-4 Visual
Профиль формата : Advanced [email protected]
Параметр BVOP формата : 2
Параметр QPel формата : Нет
Параметр GMC формата : Без точки перехода
Параметр матрицы формата : Default (H.263)
Режим смешивания : Сжатый битовый поток
Идентификатор кодека : XVID
Идентификатор кодека/Подсказка : XviD
Продолжительность : 44 м.
Битрейт : 1799 Кбит/сек
Ширина : 720 пикселей
Высота : 408 пикселей
Соотношение сторон : 16:9
Частота кадров : 29,970 кадров/сек
Цветовое пространство : YUV
Субдискретизация насыщенности : 4:2:0
Битовая глубина : 8 бит
Тип развёртки : Прогрессивная
Метод сжатия : С потерями
Бит/(Пиксели*Кадры) : 0.204
Размер потока : 566 Мбайт (90%)
Библиотека кодирования : XviD 1.2.1 (UTC 2008-12-04)
Аудио
Идентификатор : 1
Формат : AC-3
Формат/Информация : Audio Coding 3
Расширение режима : CM (complete main)
Параметр Endianness формата : Big
Идентификатор кодека : 2000
Продолжительность : 44 м.
Вид битрейта : Постоянный
Битрейт : 192 Кбит/сек
Каналы : 2 канала
Расположение каналов : Front: L R
Частота : 48,0 КГц
Битовая глубина : 16 бит
Метод сжатия : С потерями
Размер потока : 60,4 Мбайт (10%)
Выравнивание : Разделение по промежуткам
Продолжительность промежутка : 33 мс. (1,00 видеокадр)
Время предзагрузки промежутка : 500 мс.
Суперкары, включая Bugatti Veyron и Thrust SSC, соревнуются друг с другом в пяти автомобильных конкурсах, чтобы выяснить,
какой суперкар самый лучший...
Формат : AVI
Формат/Информация : Audio Video Interleave
Размер файла : 555 Мбайт
Продолжительность : 43 м.
Общий поток : 1782 Кбит/сек
Библиотека кодирования : VirtualDub build 34807/release
Видео
Идентификатор : 0
Формат : MPEG-4 Visual
Профиль формата : Advanced [email protected]
Параметр BVOP формата : 2
Параметр QPel формата : Нет
Параметр GMC формата : Без точки перехода
Параметр матрицы формата : Default (H.263)
Режим смешивания : Сжатый битовый поток
Идентификатор кодека : XVID
Идентификатор кодека/Подсказка : XviD
Продолжительность : 43 м.
Битрейт : 1645 Кбит/сек
Ширина : 720 пикселей
Высота : 400 пикселей
Соотношение сторон : 16:9
Частота кадров : 25,000 кадров/сек
Цветовое пространство : YUV
Субдискретизация насыщенности : 4:2:0
Битовая глубина : 8 бит
Тип развёртки : Прогрессивная
Метод сжатия : С потерями
Бит/(Пиксели*Кадры) : 0.228
Размер потока : 512 Мбайт (92%)
Библиотека кодирования : XviD 64
Аудио
Идентификатор : 1
Формат : MPEG Audio
Версия формата : Version 1
Профиль формата : Layer 3
Режим : Joint stereo
Расширение режима : MS Stereo
Идентификатор кодека : 55
Идентификатор кодека/Подсказка : MP3
Продолжительность : 43 м.
Вид битрейта : Постоянный
Битрейт : 128 Кбит/сек
Каналы : 2 канала
Частота : 48,0 КГц
Метод сжатия : С потерями
Размер потока : 39,9 Мбайт (7%)
Выравнивание : Разделение по промежуткам
Продолжительность промежутка : 40 мс. (1,00 видеокадр)
Время предзагрузки промежутка : 500 мс.
Заводы - одни из самых крупных и удивительных зданий планеты, где наука и технологии работают на производство чего угодно: от
микросхем до ракет. Заводы крайне разнообразны: умные, современные, гигантские - и каждый является единым сложным механизмом.
Как создаются лучшие из лучших? Мы решили изучить эти чудеса инженерии и выяснить: какой завод самый большой, какой самый
ударный или самый дорогой?..
Формат : AVI
Формат/Информация : Audio Video Interleave
Размер файла : 619 Мбайт
Продолжительность : 43 м.
Общий поток : 2001 Кбит/сек
Программа кодирования : VirtualDubMod 1.5.10.3 | www.virtualdub-fr.org || (build 2550/release)
Библиотека кодирования : VirtualDubMod build 2550/release
Видео
Идентификатор : 0
Формат : MPEG-4 Visual
Профиль формата : Advanced [email protected]
Параметр BVOP формата : 2
Параметр QPel формата : Нет
Параметр GMC формата : Без точки перехода
Параметр матрицы формата : Default (H.263)
Режим смешивания : Сжатый битовый поток
Идентификатор кодека : XVID
Идентификатор кодека/Подсказка : XviD
Продолжительность : 43 м.
Битрейт : 1800 Кбит/сек
Ширина : 720 пикселей
Высота : 400 пикселей
Соотношение сторон : 16:9
Частота кадров : 25,000 кадров/сек
Цветовое пространство : YUV
Субдискретизация насыщенности : 4:2:0
Битовая глубина : 8 бит
Тип развёртки : Прогрессивная
Метод сжатия : С потерями
Бит/(Пиксели*Кадры) : 0.250
Размер потока : 556 Мбайт (90%)
Библиотека кодирования : XviD 1.2.1 (UTC 2008-12-04)
Аудио
Идентификатор : 1
Формат : AC-3
Формат/Информация : Audio Coding 3
Расширение режима : CM (complete main)
Параметр Endianness формата : Big
Идентификатор кодека : 2000
Продолжительность : 43 м.
Вид битрейта : Постоянный
Битрейт : 192 Кбит/сек
Каналы : 6 каналов
Расположение каналов : Front: L C R, Side: L R, LFE
Частота : 48,0 КГц
Битовая глубина : 16 бит
Метод сжатия : С потерями
Размер потока : 59,3 Мбайт (10%)
Выравнивание : Разделение по промежуткам
Продолжительность промежутка : 40 мс. (1,00 видеокадр)
Время предзагрузки промежутка : 500 мс.
-Качество видео: SATRip
Контейнер: AVI
Видео кодек: XviD
Аудио кодек: MP3
Видео: MPEG-4 Visual at 1645 Кбит/сек 720 x 400 , 720x408 (1.800) at 25.000 fps
Аудио: MPEG Audio at 128 Кбит/сек 2 канала, 48,0 КГц
Download / Скачать

Хотите скачать бесплатно? Зарегистрируйтесь на сайте (ссылка на регистрацию). Pirat.ca - самый быстрый торрент трекер в рунете!

Как скачивать  ·   Что такое торрент  ·   Рейтинг и ограничения

UcrusPazzo

7670

Пост 03-Авг-2013 09:10 (спустя 10 часов)

[Q] 

Лови бочку

_________________
[Профиль]  [ЛС] 

Seva78 ®

1517

Пост 03-Авг-2013 11:09 (спустя 1 час 58 минут)

[Q] 

UcrusPazzo, Благодарю ay

_________________
[Профиль]  [ЛС] 

Амангельды

35490

Пост 03-Авг-2013 18:04 (спустя 6 часов)

[Q] 

Seva78, az fh

_________________

Товарищ, верь, пройдет она,
Так называемая гласность.
И вот тогда госбезопасность
Припомнит ваши имена
Раздачи от Амангельды - ТЫНЦ
[Профиль]  [ЛС] 

Seva78 ®

1517

Пост 03-Авг-2013 18:35 (спустя 31 минута)

[Q] 

Амангельды, ay az fh aa Спасибо!!!

_________________
[Профиль]  [ЛС] 

TriGun

Морской Волк

Пост 04-Авг-2013 00:07 (спустя 5 часов)

[Q] 

Автору респект!!!

_________________
[Профиль]  [ЛС] 

Seva78 ®

1517

Пост 06-Авг-2013 23:45 (спустя 2 дня 23 часа)

[Q] 

TriGun, Спасибо!!! Всем качать!!!

_________________
[Профиль]  [ЛС] 

SHERLANDO

168

Пост 11-Янв-2014 16:10 (спустя 5 месяцев 4 дня)

[Q] 

Seva78, Большое Спасибо aa Лови бочку
[Профиль]  [ЛС] 

Seva78 ®

1517

Пост 11-Янв-2014 19:01 (спустя 2 часа 51 минута)

[Q] 

SHERLANDO, Смотрите на здоровье,теперь знаю на кого оставить свою раздачу:)

_________________
[Профиль]  [ЛС] 

SHERLANDO

168

Пост 11-Янв-2014 23:35 (спустя 4 часа)

[Q] 

475946SHERLANDO, Смотрите на здоровье,теперь знаю на кого оставить свою раздачу:)
С Юбилейной бочкой тебя fh az Помогу в нелегком деле!!!
[Профиль]  [ЛС] 

Seva78 ®

1517

Пост 11-Янв-2014 23:53 (спустя 18 минут)

[Q] 

SHERLANDO,Кому сейчас легко,у Вавилона 5 так же не лёгкий период и я ему отправил 6 бочек рома:)

_________________
[Профиль]  [ЛС] 
Показать сообщения:    
Ответить на тему

Текущее время: Сегодня 18:09

Часовой пояс: GMT + 4



Вы не можете начинать темы
Вы не можете отвечать на сообщения
Вы не можете редактировать свои сообщения
Вы не можете удалять свои сообщения
Вы не можете голосовать в опросах
Вы не можете прикреплять файлы к сообщениям
Вы не можете скачивать файлы

▼ Вниз