ML
     
  Уважаемый Гость!
Вы можете поддержать проект и зарегистрироваться у наших партнеров - онлайн-стратегия MyLands. При регистрации в игре Вы получите код, который сможете активировать после регистрации на pirat.ca и получить 1000 дублонов.

Ваш код:
0fcd44bd35319f69313aa6e53b31c51cbff1c942
 
     

Загадки пришельцев / Alien Mysteries (Сезон: 1 / Серии: 1-6) (Майкл Эллкок, Кэл Кунс, Ларри МакЛин) [2013 г., Фантастика, документальный, SATRip] VO (Студия "Кириллица")

Ответить на тему
 
Автор
Сообщение

Пост 04-Фев-2014 15:00

[Q] 

Seva78

-Загадки пришельцев / Alien Mysteries-- Производство: Канада / Exploration Production, Kанал Discovery Science
Жанр: Документальный, фантастика
Год выпуска: 2013 г.
Продолжительность: 6 ~ 00:45:00


Мировая премьера: 3 марта 2013
Российская премьера: 14 августа 2013
Перевод: Профессиональный (одноголосый, закадровый)(Студия "Кириллица")
Режиссер: Майкл Эллкок, Кэл Кунс, Ларри МакЛин
-В ролях: Адам Кеннет Уилсон,Жан-Поль Мано,Стефани Мур,Дж.Д. Николсен,Майк Шара,Райан Уильямс,Дженни Янг,Брэд Бобридж,Рон Лиа,Дуглас Маклеод-Описание: Существует много мнений о факте появления НЛО на земле. Кто-то видел огненный шар, а кто-то говорит, что это все выдумка. Но все же большинство людей склоняются к той точке зрения, что инопланетные создания действительно существуют и неоднократно замечались в бездонных пространствах нашей атмосферы. Вы увидите некоторые факты существования НЛО и услышите рассказы очевидцев, описывающие невероятные явления и случаи.- Качество видео: SATRip
Контейнер: AVI
Видео кодек: XviD
Аудио кодек: MP3
Видео: MPEG-4 Visual at 1520 Кбит/сек 720 x 480 (1.500) at 25.000 fps
Аудио: MPEG Audio at 114 Кбит/сек 2 канала, 44,1 КГц
Cубтитры: отсутствуют
Формат : AVI
Формат/Информация : Audio Video Interleave
Размер файла : 514 Мбайт
Продолжительность : 43 м.
Режим общего битрейта : Переменный
Общий поток : 1646 Кбит/сек
Программа кодирования : VirtualDubMod 1.5.10.3 | (build 2550/release)
Библиотека кодирования : VirtualDubMod build 2550/release
Видео
Идентификатор : 0
Формат : MPEG-4 Visual
Профиль формата : Advanced [email protected]
Параметр BVOP формата : 1
Параметр QPel формата : Нет
Параметр GMC формата : Без точки перехода
Параметр матрицы формата : Default (H.263)
Идентификатор кодека : XVID
Идентификатор кодека/Подсказка : XviD
Продолжительность : 43 м.
Битрейт : 1520 Кбит/сек
Ширина : 720 пикселей
Высота : 480 пикселей
Соотношение сторон : 3:2
Частота кадров : 25,000 кадров/сек
Стандарт вещания : NTSC
Цветовое пространство : YUV
Субдискретизация насыщенности : 4:2:0
Битовая глубина : 8 бит
Тип развёртки : Прогрессивная
Метод сжатия : С потерями
Бит/(Пиксели*Кадры) : 0.176
Размер потока : 475 Мбайт (92%)
Библиотека кодирования : XviD 1.2.1 (UTC 2008-12-04)
Аудио
Идентификатор : 1
Формат : MPEG Audio
Версия формата : Version 1
Профиль формата : Layer 3
Режим : Joint stereo
Расширение режима : MS Stereo
Идентификатор кодека : 55
Идентификатор кодека/Подсказка : MP3
Продолжительность : 43 м.
Вид битрейта : Переменный
Битрейт : 114 Кбит/сек
Номинальный битрейт : 128 Кбит/сек
Каналы : 2 канала
Частота : 44,1 КГц
Метод сжатия : С потерями
Размер потока : 35,5 Мбайт (7%)
Выравнивание : Соединение по промежуткам
Продолжительность промежутка : 26 мс. (0,65 видеокадр)
Время предзагрузки промежутка : 481 мс.
Библиотека кодирования : LAME3.99
Настройки программы : -m j -V 4 -q 2 -lowpass 17 --abr 128
Gemini Awards 2014 Best Sound in an Information/Documentary or Lifestyle Program or Series
David Midgley
Gabriel Ferreyra
Hazel Burns
Michael Nunan
Steve Denheyer

For the episode "Rendlesham Forest".
В июле 1991 женщина увидела над своим домом в Британской Колумбии огромный космический корабль. Затем она исчезла на 45 минут,но потом не смогла вспомнить, что с ней произошло.
Однажды сидя у костра в окрестностях Стивенвилля в Техасе один летчик заметил на небе объект, который летел со скоростью, нарушающей
известные законы физики.
Когда однажды среди ночи в 2008 году Дениз Мертер, жительница округа Бакс, проснулась от бешеного лая своей собаки, она подумала, что
в дом проник кто-то посторонний...
Мэтью Рид ехал по плохо освещенной дороге на окраине Индианаполиса; последнее что он помнит, перед тем, как у него заглох двигатель -
это погоня за оранжевым пятном света.
В рождественскую ночь 1980 года американские летчики Джим Пеннистон и Джон Барроус отправляются в лес Риндлшэм, на
предполагаемое место аварийной посадки самолета.
Вечером 9 декабря 1965 года, когда солнце спускалось над тихим городком Кексбург в Пенсильвании,
Билл Бьюлбош заметил яркий огненный шар, несущийся по небу.
Download / Скачать

Хотите скачать бесплатно? Зарегистрируйтесь на сайте (ссылка на регистрацию). Pirat.ca - самый быстрый торрент трекер в рунете!

Как скачивать  ·   Что такое торрент  ·   Рейтинг и ограничения

reg25

Корсар

Пост 05-Фев-2014 13:22 (спустя 22 часа)

[Q] 

Надо полагать, что скоро пришельцы, которые живут среди нас, начнут бороться за свои права :)
Всем качать!!!
[Профиль]  [ЛС] 
Показать сообщения:    
Ответить на тему

Текущее время: Сегодня 02:10

Часовой пояс: GMT + 4



Вы не можете начинать темы
Вы не можете отвечать на сообщения
Вы не можете редактировать свои сообщения
Вы не можете удалять свои сообщения
Вы не можете голосовать в опросах
Вы не можете прикреплять файлы к сообщениям
Вы не можете скачивать файлы

▼ Вниз