ML
     
  Уважаемый Гость!
Вы можете поддержать проект и зарегистрироваться у наших партнеров - онлайн-стратегия MyLands. При регистрации в игре Вы получите код, который сможете активировать после регистрации на pirat.ca и получить 1000 дублонов.

Ваш код:
cc3be08b7507661c03e0a2f582d0da3a659ea55a
 
     

Discovery Science: Как устроена Земля / Discovery Science: How the Earth Works / Сезон: 1 / Серии: 1-8 из 8 серий (Джереми Тернер / Jeremy Turner) [2013 г., Документальный, научно-познавательный, HDTVRip] VO (студия "Кирилица")

Ответить на тему
 
Автор
Сообщение

Пост 07-Фев-2014 21:02

[Q] 

Seva78

-Discovery Science: Как устроена Земля / Discovery Science: How the Earth Works-- Производство: США, Pioneer Production for Science Channel, MMXII Discovery Communications, LLC
Жанр: Документальный, научно-познавательный
Год выпуска: 2013 г.
Продолжительность: 8 х ~00:45:00
Перевод: Профессиональный (одноголосый, закадровый)(студия "Кирилица")
Режиссер: Джереми Тернер / Jeremy Turner

-В ролях: Лиз Боннин, Мартин Пеппер-Описание: Документальный сериал посвящён группе увлеченных своим делом ученых, отправившихся в путешествие по нашей планете, чтобы найти ответы на самые интересные научные загадки современности. Вы узнаете много нового о глобальных проблемах, касающихся каждого жителя Земли, и поймете, как природные процессы влияют на нашу повседневную жизнь. Биолог Лиз Боннин и геолог Мартин Пеппер вместе постараются осветить вопросы, о которых вы даже не подозревали. Насколько супервулкан Флегрейских полей, скрывающийся в водах Неаполитанского залива, опасен для жителей Европы? Каким образом Скалистые горы Северной Америки связаны с атомной бомбой? Каково воздействие вулканических островов гавайского архипелага на геологическое будущее западного побережья США? Вместе с лучшими учеными узнайте, как устроена Земля – живой организм со своим прошлым, настоящим и будущим.
-Качество видео: HDTVRip
Контейнер: AVI
Видео кодек: XviD
Аудио кодек: AC3
Видео: MPEG-4 Visual at 1448 Кбит/сек 720 x 400 (1.800) at 25.000 fps
Аудио: AC-3 at 192 Кбит/сек 2 канала, 48,0 КГц
Cубтитры: отсутствуют

Формат : AVI
Формат/Информация : Audio Video Interleave
Размер файла : 520 Мбайт
Продолжительность : 44 м.
Общий поток : 1649 Кбит/сек
Программа кодирования : VirtualDubMod 1.5.10.3 | (build 2550/release)
Библиотека кодирования : VirtualDubMod build 2550/release
Видео
Идентификатор : 0
Формат : MPEG-4 Visual
Профиль формата : Advanced [email protected]
Параметр BVOP формата : 1
Параметр QPel формата : Нет
Параметр GMC формата : Без точки перехода
Параметр матрицы формата : Default (H.263)
Идентификатор кодека : XVID
Идентификатор кодека/Подсказка : XviD
Продолжительность : 44 м.
Битрейт : 1448 Кбит/сек
Ширина : 720 пикселей
Высота : 400 пикселей
Соотношение сторон : 16:9
Частота кадров : 25,000 кадров/сек
Цветовое пространство : YUV
Субдискретизация насыщенности : 4:2:0
Битовая глубина : 8 бит
Тип развёртки : Прогрессивная
Метод сжатия : С потерями
Бит/(Пиксели*Кадры) : 0.201
Размер потока : 456 Мбайт (88%)
Библиотека кодирования : XviD 73
Аудио
Идентификатор : 1
Формат : AC-3
Формат/Информация : Audio Coding 3
Расширение режима : CM (complete main)
Параметр Endianness формата : Big
Идентификатор кодека : 2000
Продолжительность : 44 м.
Вид битрейта : Постоянный
Битрейт : 192 Кбит/сек
Каналы : 2 канала
Расположение каналов : Front: L R
Частота : 48,0 КГц
Битовая глубина : 16 бит
Метод сжатия : С потерями
Размер потока : 60,5 Мбайт (12%)
Выравнивание : Разделение по промежуткам
Продолжительность промежутка : 40 мс. (1,00 видеокадр)
Время предзагрузки промежутка : 500 мс.
1. Сможет ли Кракатау остановить время? / Can Krakatoa Stop Time?2. Астероидный Армагеддон / Asteroid Armageddon3. Отравит ли Исландия небеса? / Will Iceland Poison the Skies?4. Смогут ли Гавайи потопить Лос Анжелес? / Will Hawaii Sink L.A.?5. Сгорит ли Европа в аду? / Will Europe Burn in Hell?6. Скалистые горы создали атомную бомбу / The Rockies Built the Atom Bomb7. Ледниковый период, или адский огонь? / Ice Age or Hell Fire?8. Смертельная битва Японии / Japanese Death Match Season
Download / Скачать

Хотите скачать бесплатно? Зарегистрируйтесь на сайте (ссылка на регистрацию). Pirat.ca - самый быстрый торрент трекер в рунете!

Как скачивать  ·   Что такое торрент  ·   Рейтинг и ограничения

Показать сообщения:    
Ответить на тему

Текущее время: Сегодня 05:10

Часовой пояс: GMT + 4



Вы не можете начинать темы
Вы не можете отвечать на сообщения
Вы не можете редактировать свои сообщения
Вы не можете удалять свои сообщения
Вы не можете голосовать в опросах
Вы не можете прикреплять файлы к сообщениям
Вы не можете скачивать файлы

▼ Вниз