ML
     
  Уважаемый Гость!
Вы можете поддержать проект и зарегистрироваться у наших партнеров - онлайн-стратегия MyLands. При регистрации в игре Вы получите код, который сможете активировать после регистрации на pirat.ca и получить 1000 дублонов.

Ваш код:
db0e0ad91548759ffeb9bb88bed405e1a4b3c165
 
     

Мумии пришельцев / Aliens mummies / (Джон Каррози) [2012 г., документальный, SATRip] VO

Ответить на тему
 
Автор
Сообщение

Пост 10-Фев-2014 19:06

[Q] 

mersicc

Корсар

-Мумии пришельцев / Aliens mummies-- Производство: Великобритания, Discovery
Жанр: документальный
Год выпуска: 2012 г.
Продолжительность: 00:43:56
Перевод: Профессиональный (одноголосый, закадровый)
Оригинальный аудиопоток:отсутствует
Режиссер: Джон Каррози-Описание: В мае 2007 года в ловушку в Мексике попалось странное существо, ставшее, по мнению многих, очередным свидетельством существования внеземной жизни.-Качество видео: SATRip
Контейнер: AVI
Видео кодек: XviD
Аудио кодек: MP3
Видео: 704x400 (1.76:1), 25 fps, XviD build 50 ~826 kbps avg, 0.12 bit/pixel
Аудио: 44.100 kHz, MPEG Layer 3, 2 ch, ~128.00 kbps avg
Cубтитры: отсутствуют
General
Complete name : C:\Users\Mersicc\Downloads\Aliens.mummies.(2012).XviD.SATRip.avi
Format : AVI
Format/Info : Audio Video Interleave
File size : 303 MiB
Duration : 43mn 56s
Overall bit rate : 964 Kbps
Writing application : VirtualDubMod 1.5.10.2 (build 2540/release)
Writing library : VirtualDubMod build 2540/release
Video
ID : 0
Format : MPEG-4 Visual
Format profile : Advanced [email protected]
Format settings, BVOP : 1
Format settings, QPel : No
Format settings, GMC : No warppoints
Format settings, Matrix : Default (H.263)
Codec ID : XVID
Codec ID/Hint : XviD
Duration : 43mn 56s
Bit rate : 826 Kbps
Width : 704 pixels
Height : 400 pixels
Display aspect ratio : 16:9
Frame rate : 25.000 fps
Color space : YUV
Chroma subsampling : 4:2:0
Bit depth : 8 bits
Scan type : Progressive
Compression mode : Lossy
Bits/(Pixel*Frame) : 0.117
Stream size : 260 MiB (86%)
Writing library : XviD 1.2.1 (UTC 2008-12-04)
Audio
ID : 1
Format : MPEG Audio
Format version : Version 1
Format profile : Layer 3
Codec ID : 55
Codec ID/Hint : MP3
Duration : 43mn 56s
Bit rate mode : Constant
Bit rate : 128 Kbps
Channel count : 2 channels
Sampling rate : 44.1 KHz
Compression mode : Lossy
Stream size : 40.2 MiB (13%)
Alignment : Split accross interleaves
Interleave, duration : 40 ms (1.00 video frame)
Interleave, preload duration : 500 ms
Writing library : LAME3.98r
Encoding settings : -m s -V 4 -q 2 -lowpass 17 -b 128
Download / Скачать

Хотите скачать бесплатно? Зарегистрируйтесь на сайте (ссылка на регистрацию). Pirat.ca - самый быстрый торрент трекер в рунете!

Как скачивать  ·   Что такое торрент  ·   Рейтинг и ограничения



Последний раз редактировалось: mersicc (2014-02-11 22:50), всего редактировалось 1 раз

mersicc ®

Корсар

1614

Пост 10-Фев-2014 19:25 (спустя 19 минут)

[Q] 

vovanig Спасибо большое.

_________________

[Профиль]  [ЛС] 

serg_bmw

Гроза морей

650

Пост 11-Фев-2014 18:48 (спустя 23 часа)

[Q] 

Спасибо!!!

_________________
[Профиль]  [ЛС] 
Показать сообщения:    
Ответить на тему

Текущее время: Сегодня 08:11

Часовой пояс: GMT + 4



Вы не можете начинать темы
Вы не можете отвечать на сообщения
Вы не можете редактировать свои сообщения
Вы не можете удалять свои сообщения
Вы не можете голосовать в опросах
Вы не можете прикреплять файлы к сообщениям
Вы не можете скачивать файлы

▼ Вниз