ML
     
  Уважаемый Гость!
Вы можете поддержать проект и зарегистрироваться у наших партнеров - онлайн-стратегия MyLands. При регистрации в игре Вы получите код, который сможете активировать после регистрации на pirat.ca и получить 1000 дублонов.

Ваш код:
2932e5898d0a27592397f70b82a5834d1e70ea19
 
     

Discovery. Голые и напуганные / Discovery. Naked and Afraid / Сезон: 1 / Серии: 1-7 из 7 (Мисси Хьюз / Missy Hughes, Тимми Пол / Timmy Paul) [2013 г., Документальный, реалити-шоу, экстрим, HDTVRip] VO

Ответить на тему
 
Автор
Сообщение

Пост 25-Фев-2014 15:52

[Q] 

Seva78

-Discovery. Голые и напуганные / Discovery. Naked and Afraid-- Производство: США, Discovery, Renegade 83
Жанр: Документальный, реалити-шоу, экстрим
Год выпуска: 2013 г.
Продолжительность: 7 х ~ 00:41:00
Мировая премьера: 23 июня 2013 г.
Российская премьера: 2 сентября 2013 г.
Перевод: Профессиональный (одноголосый, закадровый)
Режиссер: Мисси Хьюз / Missy Hughes , Тимми Пол / Timmy Paul

-В ролях: Клинт Живоин, Эррол Джеймс Снайдер, Пума Кабра, Кайли Фурно-Описание: Внимание возрастное ограничение 16+. В новой телепрограмме от канала Discovery «Голые и напуганные» режиссеры поднимают естественный отбор на совершенно иной уровень. Совсем незнакомые женщина и мужчина должны вместе прожить в весьма плохих погодных условиях без любой помощи из внешнего мира. У них нет ни еды, воды и одежды - эти двое смогут положится только на один одного. Они должны выжить на протяжении 3 недель, не имея в своем распоряжении ничего. Им разрешено иметь при себе лишь один личный предмет. Они вынуждены осознать, что единственной их наградой может стать лишь чувство гордости за это достижение. Эти отважные парочки довольно быстро познакомятся и с природой, которая будет окружать их. Именно здесь абсолютно все их инстинкты, знания и навыки о выживании в дикой, для них, природе должны подвергнутся очень суровым испытаниям. Что может произойти, если отправить мужчину и женщину без одежды в удаленную часть мира? Двое людей должны прожить 21 день без еды, воды и одежды в одной из наиболее удаленных точек планеты. Удастся ли им протянуть столько в окружении разнообразных хищников?
-
Качество видео: HDTVRip
Контейнер: AVI
Видео кодек: XviD
Аудио кодек: AC3
Видео: MPEG-4 Visual at 2296 Кбит/сек 720 x 400 (1.800) at 30.000 fps
Аудио: AC-3 at 192 Кбит/сек 2 канала, 48,0 КГц
Cубтитры: отсутствуют
01. Проклятые джунгли / The Jungle Curse
02. Ужас в Танзании / Terror in Tanzania
03. Адский остров / Island From Hell
04. Страдания в Панаме / Punishment in Panama
05. Укрощение Борнео / Breaking Borneo
06. Осторожно! Болото / Beware the Bayou
07. Страсти нудистов / Bares All
Формат : AVI
Формат/Информация : Audio Video Interleave
Размер файла : 739 Мбайт
Продолжительность : 41 м.
Общий поток : 2500 Кбит/сек
Название фильма : Naked and Afraid
Программа кодирования : VirtualDubMod 1.5.10.3 | (build 2550/release)
Видео
Идентификатор : 0
Формат : MPEG-4 Visual
Профиль формата : Advanced [email protected]
Параметр BVOP формата : 1
Параметр QPel формата : Нет
Параметр GMC формата : Без точки перехода
Параметр матрицы формата : Default (MPEG)
Идентификатор кодека : XVID
Идентификатор кодека/Подсказка : XviD
Продолжительность : 41 м.
Битрейт : 2296 Кбит/сек
Ширина : 720 пикселей
Высота : 400 пикселей
Соотношение сторон : 16:9
Частота кадров : 30,000 кадров/сек
Цветовое пространство : YUV
Субдискретизация насыщенности : 4:2:0
Битовая глубина : 8 бит
Тип развёртки : Прогрессивная
Метод сжатия : С потерями
Бит/(Пиксели*Кадры) : 0.266
Размер потока : 679 Мбайт (92%)
Библиотека кодирования : XviD 1.2.1 (UTC 2008-12-04)
Аудио
Идентификатор : 1
Формат : AC-3
Формат/Информация : Audio Coding 3
Расширение режима : CM (complete main)
Параметр Endianness формата : Big
Идентификатор кодека : 2000
Продолжительность : 41 м.
Вид битрейта : Постоянный
Битрейт : 192 Кбит/сек
Каналы : 2 канала
Расположение каналов : Front: L R
Частота : 48,0 КГц
Битовая глубина : 16 бит
Метод сжатия : С потерями
Размер потока : 56,8 Мбайт (8%)
Выравнивание : Разделение по промежуткам
Продолжительность промежутка : 33 мс. (1,00 видеокадр)
Время предзагрузки промежутка : 500 мс.
Иностранная версия короче от транслируемой по русскому каналу Дискавери поскольку в ней отсутствуют отдельные эпизоды.
Download / Скачать

Хотите скачать бесплатно? Зарегистрируйтесь на сайте (ссылка на регистрацию). Pirat.ca - самый быстрый торрент трекер в рунете!

Как скачивать  ·   Что такое торрент  ·   Рейтинг и ограничения



Последний раз редактировалось: Seva78 (2014-02-25 17:25), всего редактировалось 1 раз

vovan200976

Флибустьер

Пост 25-Фев-2014 16:57 (спустя 1 час 5 минут)

[Q] 

Интересно посмотреть как Они там будут выживать !! Спасибо!! Лови бочку
[Профиль]  [ЛС] 

Seva78 ®

1518

Пост 25-Фев-2014 17:24 (спустя 26 минут)

[Q] 

vovan200976, Качаем на здоровье и оставляем своё мнение о фильме в комментариях dc fc

_________________
[Профиль]  [ЛС] 

finder

Штурман

Пост 20-Сен-2014 14:32 (спустя 6 месяцев 22 дня)

[Q] 

Интересно посмотреть.
Спасибо!!!
[Профиль]  [ЛС] 

прохор23

Лоцман

Пост 26-Окт-2014 11:23 (спустя 1 месяц 5 дней)

[Q] 

без любой помощи из внешнего мира)))))))))))))))) третий скрин стоит мужик с мачете
[Профиль]  [ЛС] 

aks-r

Штурман

Пост 13-Ноя-2014 23:57 (спустя 18 дней)

[Q] 

Спасибо, посмотрели с большим интересом – очень хотелось бы продолжения!!!
[Профиль]  [ЛС] 

Opium

Шкипер

Пост 01-Мар-2015 11:48 (спустя 3 месяца 15 дней)

[Q] 

Это очень крутое реалити! Смотрели на одном дыхании, интереснее чем даже Беар Грилз в некоторых моментах! Очень захватывающе. Все подробно объясняют, очень интересно. Советую смотреть!
[Профиль]  [ЛС] 
Показать сообщения:    
Ответить на тему

Текущее время: Сегодня 08:00

Часовой пояс: GMT + 4



Вы не можете начинать темы
Вы не можете отвечать на сообщения
Вы не можете редактировать свои сообщения
Вы не можете удалять свои сообщения
Вы не можете голосовать в опросах
Вы не можете прикреплять файлы к сообщениям
Вы не можете скачивать файлы

▼ Вниз