ML
     
  Уважаемый Гость!
Вы можете поддержать проект и зарегистрироваться у наших партнеров - онлайн-стратегия MyLands. При регистрации в игре Вы получите код, который сможете активировать после регистрации на pirat.ca и получить 1000 дублонов.

Ваш код:
a01a592a88af5f9996a6d1baec61b18a1769954d
 
     

Discovery Channel: 2057 - планета земля через 50 лет / 2057 - Earth In The Future (Сезон: 1 / Серии: 1-3) (Meike Hemschemeier, Ларс Монтаж / Lars Montag) [2007 г., Документальный, научная фантастика, HDTVRip] MVO (LostFilm, Kravec)

Ответить на тему
 
Автор
Сообщение

Пост 09-Янв-2012 01:24

[Q] 

UcrusPazzo

Discovery Channel: 2057 - планета земля через 50 лет / 2057 - Earth In The Future / Земля в 2057 году / Открытия 2057 -Год выпуска: 2007
Мировая премьера: 28 января 2007 США, 17 марта 2007 Германия
Производство: Германия, Gruppe 5 Filmproduktion
Жанр: Документальный, научная фантастика
Продолжительность: 3 серии по 00:43:25, Общее время: 02:10:19-Перевод: Профессиональный (одноголосый, закадровый) [LostFilm, Kravec]
Субтитры: отсутствуют-Режиссер: Meike Hemschemeier, Ларс Монтаж / Lars Montag
Сценарий: Meike Hemschemeier, Dirk Kämper
Продюсер: Uwe Kersken, Тильман Ремм
Композитор: Майкл Уэйлен-В ролях: Michio Kaku, Frank Schätzing, Патрик Годфри, Паскаль Лангдэйл, Alexander Benjamin, Cameron Brian Butterwick, Меган Гэй, Zoe Martin, Дебора Уэстон, Ronnie Mkwanazi и др-Описание: В новом мире роботы будут взаимодействовать и жить между людьми, человеческие тела можно будет восстановить даже из небольшого образца ткани. Как будут выглядеть войны? Какое топливо будет использоваться? Станут ли полёты в космос обычным делом? Какие методы и новые способы спасения жизни будут изобретены через 50 лет? Что мы сможем увидеть, если перевести часы на 50 лет вперед? В уникальной смеси искусства и науки трехсерийный фильм покажет мир будущего. Будем ли мы иметь летающие автомобили? Позволит ли медицина оставаться вечно молодыми? Что насчет создания копий жизненно важных органов? Как будут выглядеть наши города? И как будут выглядеть войны? Будут ли роботы помогать в домашних делах? Станет ли Солнце заменителем нефти? При поддержке ведущих научных институтов мы предприняли попытку ответить на многие глобальные вопросы и приоткрыть завесу будущего. Впечатляющая компьютерная графика в комбинации с динамичной сюжетной линией позволили создать мир, который можно было увидеть только в фантастических фильмах, но точностью и идентичностью документального. Эти серии приоткрывают окно в наше будущее, основываясь на научных фактах, а не на выдуманной фантастике.
01. Тело человека / The Body
Первый фильм из увлекательного цикла о будущем нашей планеты. Мы движемся в будущее, которое приближается с каждым днём. Каким будет наш мир через 50 лет? Автоматизированные города, летающие машины? Будут ли у наших детей искусственные органы? Будут ли они доживать до ста лет? Ведущие мировые учёные заглядывают на полвека вперёд, возможно, их открытия изменят мир. Итак, пристегните ремни, добро пожаловать в будущее!
02. Город / The City
Второй фильм из цикла о будущем нашей планеты. На этот раз ведущие мировые учёные пытаются представить, какими будут города через полвека. Будут ли нас окружать летающие машины и удивительные здания? Или мир за 50 лет изменится не слишком сильно? Какими будут игрушки у будущих детей? И какую роль в нашей жизни будут играть компьютеры? Пристегните ремни, добро пожаловать в будущее!
03. Мир / The World
Третий фильм из цикла о будущем нашей планеты. В этой серии учёные задаются вопросом: с какой основной сложностью нам предстоит столкнуться в следующие 50 лет? Каким будет источник энергии, которая будет приводить в движение машины, города и промышленность? Где взять энергию, которая будет способствовать росту населения, но при этом не нанесёт вред окружающей среде? Задача сложная, но лучшие умы человечества уверены: выход есть.-Источник/Качество: HDTVRip
Формат: AVI
Видео кодек: XviD
Аудио кодек: MP3
Видео: 624x352 (1.77:1), 29.970 fps, XviD MPEG-4 ~1000 kbps avg, 0.15 bit/pixel
Аудио: 48 kHz, MPEG Layer 3, 2 ch, ~192.00 kbps avg
Общее
Формат : AVI
Формат/Информация : Audio Video Interleave
Размер файла : 374 Мбайт
Продолжительность : 43 м.
Общий поток : 1207 Кбит/сек
Программа кодирования : Nandub v1.0rc2
Библиотека кодирования : Nandub build 1853/release
Видео
Идентификатор : 0
Формат : MPEG-4 Visual
Профиль формата : Advanced [email protected]
Параметр BVOP формата : 2
Параметр QPel формата : Нет
Параметр GMC формата : Без точки перехода
Параметр матрицы формата : Default (MPEG)
Режим смешивания : Сжатый битовый поток
Идентификатор кодека : XVID
Идентификатор кодека/Подсказка : XviD
Продолжительность : 43 м.
Битрейт : 1001 Кбит/сек
Ширина : 624 пикселя
Высота : 352 пикселя
Соотношение сторон : 16:9
Частота кадров : 29,970 кадров/сек
Цветовое пространство : YUV
Субдискретизация насыщенности : 4:2:0
Битовая глубина : 8 бит
Тип развёртки : Прогрессивная
Метод сжатия : С потерями
Бит/(Пиксели*Кадры) : 0.152
Размер потока : 310 Мбайт (83%)
Библиотека кодирования : XviD 1.2.0SMP (UTC 2006-01-08)
Аудио
Идентификатор : 1
Формат : MPEG Audio
Версия формата : Version 1
Профиль формата : Layer 3
Режим : Joint stereo
Идентификатор кодека : 55
Идентификатор кодека/Подсказка : MP3
Продолжительность : 43 м.
Вид битрейта : Постоянный
Битрейт : 192 Кбит/сек
Каналы : 2 канала
Частота : 48,0 КГц
Метод сжатия : С потерями
Размер потока : 59,5 Мбайт (16%)
Выравнивание : Соединение по промежуткам
Продолжительность промежутка : 24 мс. (0,72 видеокадр)
Время предзагрузки промежутка : 480 мс.
Download / Скачать

Хотите скачать бесплатно? Зарегистрируйтесь на сайте (ссылка на регистрацию). Pirat.ca - самый быстрый торрент трекер в рунете!

Как скачивать  ·   Что такое торрент  ·   Рейтинг и ограничения

me14

999

Пост 12-Янв-2012 16:11 (спустя 3 дня)

[Q] 

bf

_________________
Если вы все еще не забанены - это не ваша заслуга, а модераторская недоработка.
[Профиль]  [ЛС] 

berezeca

Корсар

Пост 14-Янв-2012 11:45 (спустя 1 день 19 часов)

[Q] 

большое спасибо
[Профиль]  [ЛС] 

zahar00370

Лоцман

Пост 13-Июл-2012 19:11 (спустя 5 месяцев 30 дней)

[Q] 

[
[Профиль]  [ЛС] 

tommek

Морской Волк

231

Пост 30-Сен-2012 22:22 (спустя 2 месяца 17 дней)

[Q] 

не думаю что так сильно все изменится

_________________
[Профиль]  [ЛС] 
Показать сообщения:    
Ответить на тему

Текущее время: Сегодня 09:50

Часовой пояс: GMT + 4



Вы не можете начинать темы
Вы не можете отвечать на сообщения
Вы не можете редактировать свои сообщения
Вы не можете удалять свои сообщения
Вы не можете голосовать в опросах
Вы не можете прикреплять файлы к сообщениям
Вы не можете скачивать файлы

▼ Вниз