ML
     
  Уважаемый Гость!
Вы можете поддержать проект и зарегистрироваться у наших партнеров - онлайн-стратегия MyLands. При регистрации в игре Вы получите код, который сможете активировать после регистрации на pirat.ca и получить 1000 дублонов.

Ваш код:
8b752b428cf60a012c159dcae592cd1392170115
 
     

Великие танковые сражения 2 сезон (1-10 серии из 10) / Greatest Tank Battles 2 season (Пол Килбэк / Paul Kilback, Хью Харди / Hew Hardi, Дениэл Секулич /Daniel Sekulich и др.) [2011 г., военный, документальный, история, SATRip] VO

Ответить на тему
 
Автор
Сообщение

Пост 15-Май-2014 21:38

[Q] 

FatestaR

-Discovery: Великие танковые сражения / Discovery: Greatest Tank Battles -- Производство: США, Discovery
Год выпуска: 2010-2011 г.
Жанр: военный, документальный, история
Продолжительность: 10 серий по 00:40:00
Перевод: Профессиональный (одноголосый, закадровый)
Режиссер: Пол Килбэк / Paul Kilback, Хью Харди / Hew Hardi, Дениэл Секулич /Daniel Sekulich и др.
- Качество видео: SATRip
Контейнер: AVI
Видео кодек: XviD
Аудио кодек: MP3
Видео: 704x400, 1800 Кбит/сек, 25,0 кадров/сек
Аудио: 128 Кбит/сек, 1 канал, 48,0 КГц
Cубтитры: отсутствуют
Описание: Великие танковые сражения показывает полный накал механизированной войны на экранах в первые, анализируя оружие, защиту, тактику и используя ультра-реалистичные CGI анимации. Зритель испытывает полное представление о танковой войне: вид с высоты птичьего полета, с точки зрения солдат лицом к лицу конфронтации и тщательного технического анализа военных историков. От могучего 88mm пушки Второй мировой войны немецких Тигров, до тепловой системы наведения во время войны в Персидском заливе M-1 Абрамс – каждая серия исследует значительные технические подробности, которые определяют эпоху битвы.
В 1916 Британия, надеясь сломить долгое, кровавое, безвыходное положение на Западном фронте применила новое мобильное оружие. Это - история первых танков и как они навсегда изменили лицо современного поля битвы.[


В 1950 мир был захвачен врасплох, поскольку Северная Корея напала на Южную Корею. Это - история американских танков, которые мчатся на помощь Южной Корее и кровопролитных боев, которые они ведут на Корейском Полуострове.


В начале Второй мировой войны, немцы первыми ввели новую форму мобильной бронированной тактики. Это история о знаменитом Блицкриге нацистов, где тысячи танков прорвались через местность, которую считали непроходимой и покорили Западную Европу в течение нескольких недель.


В 1967, в ответ на растущую угрозу от арабских соседей, Израиль начинает превентивный удар против Египта в Синае. Это - история одной из самых быстрых и самых драматических побед в современной войне.


К 1944 Советы повернули ход войны на Востоке и гонят нацистскую армию назад, через страны Балтии. Это - история немецких танкистов, которые продолжают сражаться и выигрывать сражения даже притом, что они не могут выиграть войну.


К концу 1942 года, наступление немцев на Восточном фронте начинает тормозить, и Советы делают свою ставку на обороне в городе Сталинград. Это история одного из самых драматичных сражений в истории, в котором была потеряна целая немецкая армия, и навсегда изменился ход войны.



После успеха Блицкрига, юноши по всей Германии стремились в танковые корпуса в поисках славы. Это история одного немецкого танкиста, который сталкивается лицом к лицу с суровой реальностью танковых войск. Он участвует в нескольких важных битвах и пережил Вторую мировую войну.


Стремясь возвратить потерянную территорию шестью годами ранее, Египет начинает внезапное нападение против Израиля в октябре 1973. Это - история заключительной арабско-израильской войны в Синае, где обе стороны достигают успеха, терпят ошеломляющее поражения и – что наиболее важно в результате – прочный мир.


К 1942 году Африканский корпус Роммеля, был отброшен назад в Тунис и встретил новый Американский танковый корпус в Северной Африке. Это история последних сражений в Северной Африке двух самых известных танковых командиров истории - Паттона и Роммеля.


В 1943 году у танков Королевского Канадского Бронетанкового корпуса, состоялся боевой дебют на Европейском материке. Это история о канадских танкистах, которые сражаются на своем пути по Итальянскому полуострову и в наступательном прорыве стремятся освободить Рим от нацистской оккупации.


Общее
Полное имя : Velikie.tankovye.srazhenija.2.sezon.SATRip\VTS.Bitvy.pervoj.mirovoj.vojny.2011.XviD.SATRip.avi
Формат : AVI
Формат/Информация : Audio Video Interleave
Размер файла : 610 Мбайт
Продолжительность : 44 м.
Общий поток : 1933 Кбит/сек
Видео
Идентификатор : 0
Формат : MPEG-4 Visual
Профиль формата : Advanced [email protected]
Параметр BVOP формата : 2
Параметр QPel формата : Нет
Параметр GMC формата : Без точки перехода
Параметр матрицы формата : Default (MPEG)
Идентификатор кодека : XVID
Идентификатор кодека/Подсказка : XviD
Продолжительность : 44 м.
Битрейт : 1800 Кбит/сек
Ширина : 704 пикселя
Высота : 400 пикселей
Соотношение сторон : 1,894
Частота кадров : 25,000 кадров/сек
Цветовое пространство : YUV
Субдискретизация насыщенности : 4:2:0
Битовая глубина : 8 бит
Тип развёртки : Прогрессивная
Метод сжатия : С потерями
Бит/(Пиксели*Кадры) : 0.256
Размер потока : 568 Мбайт (93%)
Библиотека кодирования : XviD 1.2.1 (UTC 2008-12-04)
Аудио
Идентификатор : 1
Формат : MPEG Audio
Версия формата : Version 1
Профиль формата : Layer 3
Идентификатор кодека : 55
Идентификатор кодека/Подсказка : MP3
Продолжительность : 44 м.
Вид битрейта : Постоянный
Битрейт : 128 Кбит/сек
Каналы : 1 канал
Частота : 48,0 КГц
Метод сжатия : С потерями
Размер потока : 40,4 Мбайт (7%)
Выравнивание : Разделение по промежуткам
Продолжительность промежутка : 472 мс. (11,79 видеокадров)
Время предзагрузки промежутка : 200 мс.
Заголовок : _greatest_tank_battles__Discovery World (rus)_05-16_05-25-00_ Tc0 L2 mono 48 96 DELAY 0ms
Библиотека кодирования : LAME3.98r
Настройки программы : -m m -V 4 -q 2 -lowpass 20.5 -b 128
и
Download / Скачать

Хотите скачать бесплатно? Зарегистрируйтесь на сайте (ссылка на регистрацию). Pirat.ca - самый быстрый торрент трекер в рунете!

Как скачивать  ·   Что такое торрент  ·   Рейтинг и ограничения



Последний раз редактировалось: FatestaR (2014-05-17 00:30), всего редактировалось 10 раз(а)
Показать сообщения:    
Ответить на тему

Текущее время: Сегодня 06:22

Часовой пояс: GMT + 4



Вы не можете начинать темы
Вы не можете отвечать на сообщения
Вы не можете редактировать свои сообщения
Вы не можете удалять свои сообщения
Вы не можете голосовать в опросах
Вы не можете прикреплять файлы к сообщениям
Вы не можете скачивать файлы

▼ Вниз