ML
     
  Уважаемый Гость!
Вы можете поддержать проект и зарегистрироваться у наших партнеров - онлайн-стратегия MyLands. При регистрации в игре Вы получите код, который сможете активировать после регистрации на pirat.ca и получить 1000 дублонов.

Ваш код:
0af2e2107bc9b5dd5ac2c09f9fc25e1a77c43887
 
     

Город наизанку / Strip The City / Сезон: 2 / Серии: 1-8 из 8 (Ройланд Дауст / Roeland Doust, Глен Свифт / Glenn Swift, Мат Маргретт / Matt Margrett) [2014 г., документальный, путешествия, HDTVRip] VO

Ответить на тему
 
Автор
Сообщение

Пост 21-Сен-2014 13:13

[Q] 

AnastasWolf

Город наизанку / Strip The City- - Год выпуска: 2014 г.
Производство: Великобритания , Канада , Windfall Films, Handel Productions, Discovery Channel
Жанр: документальный, путешествия
Продолжительность: 8x ~ 00:44:00
Мировая премьера: 26 октября 2012
Российская премьера: 14 февраля 2013
Перевод: Профессиональный (одноголосый, закадровый)
Режиссёры: Ройланд Дауст / Roeland Doust, Глен Свифт / Glenn Swift, Мат Маргретт / Matt Margrett-В ролях: Том Кикот, Ник Эйлс, Грег Холл, Клэйтон Алари, Ванесса О’Коннелл, Тара Браун, Филип Холлидэй, Энди Маккэй, Эндрю Марсонет, Брэд Пиланс-Описание: "Strip The City" расскажет вам о подземных и наземных инженерных секретах, скрытых в структурах многих городов мира.
Мы вывернем города наизнанку, обнажим их внутренние ресурсы и с помощью инженеров и специалистов поведаем обо всех искусных технологиях. Великолепная компьютерная графика помогает рассказать о геологических, архитектурных и технологических фундаментах и конструкциях самых крупных городов мира.
- *8.5 *7.88Качество видео: HDTVRip
Контейнер: AVI
Видео кодек: XviD
Аудио кодек: AC3
Видео: 720x400, ~ 1520 kbps avg, 50 fps, 0.106 bit/pixel
Аудио: 192 kbps, 2 ch, 48.0 kHz
Cубтитры: отсутствуют
1. Нью-Йорк - город бурь / Superstorm City New York
2. Жара в Чикаго / Heatwave City Chicago
3. Венеция - тонущий город / Sinking City - Venice
4. Токио - город землетрясений / Megaquake City - Tokyo
5. Новый Орлеан - город ураганов / Hurricane City - New Orleans
6. Париж - город пещер / Cavern City - Paris
7. Древний город Мачу-Пикчу / Ancient City - Machu Picchu
8. Лос-Анжелес - город подземных бурь / Earthquake City - Los Angeles
Общее
Полное имя : Город наизнанку_ Strip The City.2014. Сезон 2.[HDTVRip]\Серия 1.avi
Формат : AVI
Формат/Информация : Audio Video Interleave
Размер файла : 543 Мбайт
Продолжительность : 43 м.
Общий поток : 1732 Кбит/сек
Программа кодирования : VirtualDubMod 1.5.10.3 | (build 2550/release)
Библиотека кодирования : VirtualDubMod build 2550/release
Видео
Идентификатор : 0
Формат : MPEG-4 Visual
Профиль формата : Advanced [email protected]
Параметр BVOP формата : 2
Параметр QPel формата : Нет
Параметр GMC формата : Без точки перехода
Параметр матрицы формата : Default (H.263)
Идентификатор кодека : XVID
Идентификатор кодека/Подсказка : XviD
Продолжительность : 43 м.
Битрейт : 1521 Кбит/сек
Ширина : 720 пикселей
Высота : 400 пикселей
Соотношение сторон : 16:9
Частота кадров : 50,000 кадров/сек
Цветовое пространство : YUV
Субдискретизация насыщенности : 4:2:0
Битовая глубина : 8 бит
Тип развёртки : Прогрессивная
Метод сжатия : С потерями
Бит/(Пиксели*Кадры) : 0.106
Размер потока : 477 Мбайт (88%)
Библиотека кодирования : XviD 1.2.1 (UTC 2008-12-04)
Аудио
Идентификатор : 1
Формат : AC-3
Формат/Информация : Audio Coding 3
Расширение режима : CM (complete main)
Параметр Endianness формата : Big
Идентификатор кодека : 2000
Продолжительность : 43 м.
Вид битрейта : Постоянный
Битрейт : 192 Кбит/сек
Каналы : 2 канала
Расположение каналов : Front: L R
Частота : 48,0 КГц
Битовая глубина : 16 бит
Метод сжатия : С потерями
Размер потока : 60,2 Мбайт (11%)
Выравнивание : Разделение по промежуткам
Продолжительность промежутка : 20 мс. (1,00 видеокадр)
Время предзагрузки промежутка : 500 мс.
Download / Скачать

Хотите скачать бесплатно? Зарегистрируйтесь на сайте (ссылка на регистрацию). Pirat.ca - самый быстрый торрент трекер в рунете!

Как скачивать  ·   Что такое торрент  ·   Рейтинг и ограничения

vetalvet1994

Штурман

Пост 30-Янв-2015 11:38 (спустя 4 месяца 8 дней)

[Q] 

На любителя Спасибо!!!
[Профиль]  [ЛС] 
Показать сообщения:    
Ответить на тему

Текущее время: Сегодня 00:07

Часовой пояс: GMT + 4



Вы не можете начинать темы
Вы не можете отвечать на сообщения
Вы не можете редактировать свои сообщения
Вы не можете удалять свои сообщения
Вы не можете голосовать в опросах
Вы не можете прикреплять файлы к сообщениям
Вы не можете скачивать файлы

▼ Вниз