ML
     
  Уважаемый Гость!
Вы можете поддержать проект и зарегистрироваться у наших партнеров - онлайн-стратегия MyLands. При регистрации в игре Вы получите код, который сможете активировать после регистрации на pirat.ca и получить 1000 дублонов.

Ваш код:
11f49771fdf057c9d51610e4a0925c3b46ddb655
 
     

Город наизнанку / Strip The City / Сезон: 1 / Серии: 1-6 из 6 (Ройланд Дауст / Roeland Doust, Глен Свифт / Glenn Swift, Мат Маргретт / Matt Margrett) [2012 г., документальный, путешествия, HDTVRip] VO

Ответить на тему
 
Автор
Сообщение

Пост 21-Сен-2014 13:33

[Q] 

AnastasWolf

Город наизнанку / Strip The City- - Год выпуска: 2012 г.
Производство: Великобритания , Канада , Windfall Films, Handel Productions, Discovery Channel
Жанр: документальный, путешествия
Продолжительность: 6x ~ 00:44:00
Мировая премьера: 26 октября 2012
Российская премьера: 14 февраля 2013
Перевод: Профессиональный (одноголосый, закадровый)
Режиссёры: Ройланд Дауст / Roeland Doust, Глен Свифт / Glenn Swift, Мат Маргретт / Matt Margrett-В ролях: Том Кикот, Ник Эйлс, Грег Холл, Клэйтон Алари, Ванесса О’Коннелл, Тара Браун, Филип Холлидэй, Энди Маккэй, Эндрю Марсонет, Брэд Пиланс-Описание: "Strip The City" расскажет вам о подземных и наземных инженерных секретах, скрытых в структурах многих городов мира.
Мы вывернем города наизнанку, обнажим их внутренние ресурсы и с помощью инженеров и специалистов поведаем обо всех искусных технологиях. Великолепная компьютерная графика помогает рассказать о геологических, архитектурных и технологических фундаментах и конструкциях самых крупных городов мира.
- *8.5 *7.88Качество видео: HDTVRip
Контейнер: AVI
Видео кодек: XviD
Аудио кодек: AC3
Видео: 720x400, ~ 1520 kbps avg, 50 fps, 0.106 bit/pixel
Аудио: 192 kbps, 2 ch, 48.0 kHz
Cубтитры: отсутствуют
1. Древний город Рим / Ancient City - Rome
2. Город и землятрясение. Сан-Франциско / City and earthquake of San Francisco
3. Город в пустыне - Дубай / Desert City
4. Город-гавань - Сидней / Harbour City - Sydney
5. Ледяной город Торонто / Ice City - Toronto
6. Подземный город Лондон / Underground City - London
Общее
Полное имя : Горд наизнанку_ Strip The City.2012. Сезон 1.[HDTVRip]\Серия 1.avi
Формат : AVI
Формат/Информация : Audio Video Interleave
Размер файла : 547 Мбайт
Продолжительность : 44 м.
Общий поток : 1731 Кбит/сек
Программа кодирования : VirtualDubMod 1.5.10.3 | (build 2550/release)
Библиотека кодирования : VirtualDubMod build 2550/release
Видео
Идентификатор : 0
Формат : MPEG-4 Visual
Профиль формата : Advanced [email protected]
Параметр BVOP формата : 2
Параметр QPel формата : Нет
Параметр GMC формата : Без точки перехода
Параметр матрицы формата : Default (H.263)
Идентификатор кодека : XVID
Идентификатор кодека/Подсказка : XviD
Продолжительность : 44 м.
Битрейт : 1519 Кбит/сек
Ширина : 720 пикселей
Высота : 400 пикселей
Соотношение сторон : 16:9
Частота кадров : 50,000 кадров/сек
Цветовое пространство : YUV
Субдискретизация насыщенности : 4:2:0
Битовая глубина : 8 бит
Тип развёртки : Прогрессивная
Метод сжатия : С потерями
Бит/(Пиксели*Кадры) : 0.106
Размер потока : 481 Мбайт (88%)
Библиотека кодирования : XviD 1.2.1 (UTC 2008-12-04)
Аудио
Идентификатор : 1
Формат : AC-3
Формат/Информация : Audio Coding 3
Расширение режима : CM (complete main)
Параметр Endianness формата : Big
Идентификатор кодека : 2000
Продолжительность : 44 м.
Вид битрейта : Постоянный
Битрейт : 192 Кбит/сек
Каналы : 2 канала
Расположение каналов : Front: L R
Частота : 48,0 КГц
Битовая глубина : 16 бит
Метод сжатия : С потерями
Размер потока : 60,7 Мбайт (11%)
Выравнивание : Разделение по промежуткам
Продолжительность промежутка : 20 мс. (1,00 видеокадр)
Время предзагрузки промежутка : 500 мс.
Download / Скачать

Хотите скачать бесплатно? Зарегистрируйтесь на сайте (ссылка на регистрацию). Pirat.ca - самый быстрый торрент трекер в рунете!

Как скачивать  ·   Что такое торрент  ·   Рейтинг и ограничения

vetalvet1994

Штурман

Пост 30-Янв-2015 11:35 (спустя 4 месяца 8 дней)

[Q] 

Супер! Спасибо!!!
[Профиль]  [ЛС] 
Показать сообщения:    
Ответить на тему

Текущее время: Сегодня 03:11

Часовой пояс: GMT + 4



Вы не можете начинать темы
Вы не можете отвечать на сообщения
Вы не можете редактировать свои сообщения
Вы не можете удалять свои сообщения
Вы не можете голосовать в опросах
Вы не можете прикреплять файлы к сообщениям
Вы не можете скачивать файлы

▼ Вниз