ML
     
  Уважаемый Гость!
Вы можете поддержать проект и зарегистрироваться у наших партнеров - онлайн-стратегия MyLands. При регистрации в игре Вы получите код, который сможете активировать после регистрации на pirat.ca и получить 1000 дублонов.

Ваш код:
ca44e9295b9b8527ba1c339c20494f70782efea6
 
     

Как это устроено? / How Does it Work? / (Гэбриел Хосс, François Senécal-Tremblay, Ян Севард) [2014 г., Документальный, технологии, DVDRip, 720p] VO

Ответить на тему
 
Автор
Сообщение

Пост 19-Ноя-2014 21:24

[Q] 

ziff

Юнга

-Как это устроено? / How Does it Work?-- Производство: США, Discovery Science
Жанр: Документальный, технологии
Год выпуска: 2014 г.
Продолжительность: 00:21:29
Перевод: Профессиональный (одноголосый, закадровый)
Режиссер: Гэбриел Хосс, François Senécal-Tremblay, Ян Севард-Описание: О фильме:
Программа «Как это устроено?» — это увлекательный и познавательный взгляд на то, как устроены самые обыденные предметы — жесткие диски, микроволновые печи и телевизоры. В каждой серии этого занимательного сериала вы познакомитесь с четырьмя предметами. В программе используется трехмерная графика, которая позволяет «увидеть» невидимые для камеры детали. Программа «Как это устроено?» заставит вас изменить взгляд на простые вещи и расскажет о том, что вам всегда хотелось узнать. Этот увлекательный и познавательный сериал дает полную информацию о самых разных предметах повседневного обихода. Вы узнаете массу неожиданных, удивительных и захватывающих фактов, которые не оставят равнодушным ни одного зрителя.-
Качество видео: DVDRip
Контейнер: AVI
Стандарт разрешения: 720p
Видео кодек: H.264
Аудио кодек: MP3
Видео: 720x576 (1.25:1), 25 fps, Intel ITU H.264 ~1978 kbps avg, 0.19 bit/pixel
Аудио: 48 kHz, MPEG Layer 3, 2 ch, ~128.00 kbps avg
Cубтитры: отсутствуют
Общее
Полное имя : C:\Documents and Settings\Admin\Рабочий стол\Глина, чернослив, шпоры, полиуритановые шины\how it works.avi
Формат : AVI
Формат/Информация : Audio Video Interleave
Размер файла : 326 Мбайт
Продолжительность : 21 м.
Общий поток : 2120 Кбит/сек
Программа кодирования : Lavf55.12.100
Видео
Идентификатор : 1
Формат : AVC
Формат/Информация : Advanced Video Codec
Профиль формата : [email protected]
Параметр CABAC формата : Да
Параметр ReFrames формата : 16 кадров
Идентификатор кодека : H264
Продолжительность : 21 м.
Битрейт : 1979 Кбит/сек
Ширина : 720 пикселей
Высота : 576 пикселей
Соотношение сторон : 16:9
Режим частоты кадров : Переменный
Частота кадров : 25,000 кадров/сек
Стандарт вещания : PAL
Цветовое пространство : YUV
Субдискретизация насыщенности : 4:2:0
Битовая глубина : 8 бит
Тип развёртки : Прогрессивная
Бит/(Пиксели*Кадры) : 0.191
Размер потока : 304 Мбайт (93%)
Аудио
Идентификатор : 0
Формат : MPEG Audio
Версия формата : Version 1
Профиль формата : Layer 3
Режим : Joint stereo
Расширение режима : MS Stereo
Идентификатор кодека : 55
Идентификатор кодека/Подсказка : MP3
Продолжительность : 21 м.
Вид битрейта : Постоянный
Битрейт : 128 Кбит/сек
Каналы : 2 канала
Частота : 48,0 КГц
Метод сжатия : С потерями
Размер потока : 19,7 Мбайт (6%)
Выравнивание : Соединение по промежуткам
Продолжительность промежутка : 40 мс. (1,00 видеокадр)
Библиотека кодирования : LAME3.99.5
Содержание:
1. Глина
2. Чернослив
3. Шпоры
4. Полиуритановые шины
Download / Скачать

Хотите скачать бесплатно? Зарегистрируйтесь на сайте (ссылка на регистрацию). Pirat.ca - самый быстрый торрент трекер в рунете!

Как скачивать  ·   Что такое торрент  ·   Рейтинг и ограничения



Последний раз редактировалось: ziff (2014-11-19 22:46), всего редактировалось 5 раз(а)

ziff ®

Юнга

2

Пост 19-Ноя-2014 21:47 (спустя 23 минуты)

[Q] 

Анаморфирование - Дополнительная обработка (анаморфирование) изображения, записываемого на DVD, которая позволяет улучшить воспроизведение кадров традиционного формата на широкоэкранных телевизорах -устраняет характерные искажения и черные поля.
Размер кадра 1024x576
Размер видео 720x576
[Профиль]  [ЛС] 

UcrusPazzo

7670

Пост 20-Ноя-2014 20:56 (спустя 23 часа)

[Q] 

ziff и к чему это все написано?
Как это устроено? / Как это работает? / How Does it Work? (Гэбриел Хосс / Gabriel Hoss) [2014 г., Документальный, технологии, SATRip] VO
вы издеваетесь?!!!!

_________________
[Профиль]  [ЛС] 
Показать сообщения:    
Ответить на тему

Текущее время: Сегодня 16:14

Часовой пояс: GMT + 4



Вы не можете начинать темы
Вы не можете отвечать на сообщения
Вы не можете редактировать свои сообщения
Вы не можете удалять свои сообщения
Вы не можете голосовать в опросах
Вы не можете прикреплять файлы к сообщениям
Вы не можете скачивать файлы

▼ Вниз