ML
     
  Уважаемый Гость!
Вы можете поддержать проект и зарегистрироваться у наших партнеров - онлайн-стратегия MyLands. При регистрации в игре Вы получите код, который сможете активировать после регистрации на pirat.ca и получить 1000 дублонов.

Ваш код:
e6008d9811a0b6a1393c3dc51ecd7bc35637bc21
 
     

Discovery: Вечера науки с Константином Хабенским / Discovery: Evenings of science with Konstantin Khabensky / Сезон: 1 / Серии: 1-17 из17 (Константином Хабенским / Jason Constantine) [2015 г., Документальный, научно-познавательный, HDTVRip]

Ответить на тему
 
Автор
Сообщение

Пост 18-Окт-2015 19:44

[Q] 

Элез

Флибустьер

-Discovery: Вечера науки с Константином Хабенским / Discovery: Evenings of science with Konstantin Khabensky-- Производство: США, Россия
Жанр: Документальный, научно-познавательный
Год выпуска: 2015 г.
Продолжительность: 9 x 00:45:00
Перевод: Не требуется
Режиссер: Константином Хабенским / Jason Constantine
Телеканал: -Описание: Проводником в большом космическом путешествии будет Константин Хабенский, который стал ведущим всех трех программ цикла – «Как устроена Вселенная», «Человек и Вселенная» и «Космос наизнанку». Он представит сюжеты, созданные на основе последних научных данных, а великолепная компьютерная графика дополнит его рассказ, превращая телеэкран в иллюминатор межпланетного корабля. Вы получите возможность не только вблизи взглянуть на отдаленные космические объекты, но и узнать, как они образовались и как устроены. Вы приблизитесь к сверхмассивной черной дыре, которая находится в центре нашей галактики, без риска попасть в ее гравитационное поле. Вы узнаете, как выглядела Солнечная система сразу после ее образования – компьютерная графика сократит миллиарды лет до минут, позволяя увидеть, как формировались планеты и их спутники. Константин Хабенский поможет сориентироваться в потоке интересных научных фактов, чтобы новейшие теории, представленные в наглядной и увлекательной форме, стали-
Качество видео: HDTVRip
Контейнер: AVI
Видео кодек: XviD
Аудио кодек: MP3
Видео: MPEG-4 Visual at 1896 Кбит/сек : 720 x 400 at 25.000 fps Бит/Кадры): 0.263
Аудио: MPEG Audio at 128 Кбит/сек : 2 канала, 48,0 КГц
Cубтитры: отсутствуют
01. Как Вселенная сконструировала машину.
02. Черные дыры.
03. Разработка Луны.
04. На краю Солнечной системы.
05. Солнце.
06. Как уничтожить астероид.
07. Земля, злой близнец Венеры.
08. Смертоносные астероиды.
09. Наш Марс.
10. На заре жизни.
11. Марс.
12. Чудовищная чёрная дыра.
13. Кометы.
14. Силы Вселенского Созидания.
15. Чужие миры.
16. Тайная история Луны.
17. Первые океаны.
Общее
Полное имя : E:\µTorrent\загрузки\Вечера науки с Константином Хабенским [HDTVRip by gmm120880]\(01. Вечера науки с Константином Хабенским).avi
Формат : AVI
Формат/Информация : Audio Video Interleave
Размер файла : 641 Мбайт
Продолжительность : 44 м.
Общий поток : 2031 Кбит/сек
Программа кодирования : TMPGEnc Video Mastering Works 5 Version. 5.0.6.38
Библиотека кодирования : TMPGEnc Video Mastering Works 5 Version. 5.0.6.38
Правообладатель : gmm120880
Видео
Идентификатор : 0
Формат : MPEG-4 Visual
Профиль формата : Advanced [email protected]
Параметр BVOP формата : 1
Параметр QPel формата : Нет
Параметр GMC формата : Без точки перехода
Параметр матрицы формата : Default (H.263)
Идентификатор кодека : XVID
Идентификатор кодека/Подсказка : XviD
Продолжительность : 44 м.
Битрейт : 1896 Кбит/сек
Ширина : 720 пикселей
Высота : 400 пикселей
Соотношение сторон : 16:9
Частота кадров : 25,000 кадров/сек
Цветовое пространство : YUV
Субдискретизация насыщенности : 4:2:0
Битовая глубина : 8 бит
Тип развёртки : Прогрессивная
Метод сжатия : С потерями
Бит/(Пиксели*Кадры) : 0.263
Размер потока : 598 Мбайт (93%)
Библиотека кодирования : XviD 67
Аудио
Идентификатор : 1
Формат : MPEG Audio
Версия формата : Version 1
Профиль формата : Layer 3
Режим : Joint stereo
Расширение режима : MS Stereo
Идентификатор кодека : 55
Идентификатор кодека/Подсказка : MP3
Продолжительность : 44 м.
Вид битрейта : Постоянный
Битрейт : 128 Кбит/сек
Каналы : 2 канала
Частота : 48,0 КГц
Метод сжатия : С потерями
Размер потока : 40,4 Мбайт (6%)
Выравнивание : Соединение по промежуткам
Продолжительность промежутка : 250 мс. (6,25 видеокадров)
Время предзагрузки промежутка : 192 мс.
Download / Скачать

Хотите скачать бесплатно? Зарегистрируйтесь на сайте (ссылка на регистрацию). Pirat.ca - самый быстрый торрент трекер в рунете!

Как скачивать  ·   Что такое торрент  ·   Рейтинг и ограничения



Последний раз редактировалось: Элез (2015-11-22 19:54), всего редактировалось 8 раз(а)

Дядя Витя

53912

Пост 18-Окт-2015 20:34 (спустя 49 минут)

[Q] 

Ку три раза

_________________
?
[Профиль]  [ЛС] 

vital1976

Морской Волк

Пост 19-Окт-2015 11:16 (спустя 14 часов)

[Q] 

тут про глобусы и географию? Кто здеся?
[Профиль]  [ЛС] 

Дядя Витя

53912

Пост 19-Окт-2015 19:22 (спустя 8 часов)

[Q] 

vital1976, да неее, их пропили давно )

_________________
?
[Профиль]  [ЛС] 

alexx2201

33

Пост 19-Окт-2015 22:50 (спустя 3 часа)

[Q] 

будем посмотреть ... ребенку нравиться про звездей кино смотреть.Автор Лови бочку

_________________
Отпуск...внезапно
[Профиль]  [ЛС] 

Элез ®

Флибустьер

15330

Пост 25-Окт-2015 21:01 (спустя 5 дней)

[Q] 

25.10.2015: Добавлены серии 10-11!!!

_________________

[Профиль]  [ЛС] 

datt

Лоцман

Пост 26-Окт-2015 00:42 (спустя 3 часа)

[Q] 

так это для детей или повеселее будет?
[Профиль]  [ЛС] 

alex_dry

Гроза морей

Пост 26-Окт-2015 22:30 (спустя 21 час)

[Q] 

Очень интересно! Спасибо!!! Лови бочку
[Профиль]  [ЛС] 

alexx2201

33

Пост 27-Окт-2015 09:01 (спустя 10 часов)

[Q] 

Ссспасибо Элез! Лови бочку

_________________
Отпуск...внезапно
[Профиль]  [ЛС] 

Элез ®

Флибустьер

15330

Пост 08-Ноя-2015 16:07 (спустя 12 дней)

[Q] 

Добавлены серии 12. Чудовищная чёрная дыра. 13. Кометы. 14. Силы Вселенского Созидания. 15. Чужие миры.

_________________

[Профиль]  [ЛС] 

egismac

Гроза морей

Пост 08-Ноя-2015 16:29 (спустя 22 минуты)

[Q] 

при попытке скачать
http://pirat.ca/images/404.jpg
[Профиль]  [ЛС] 

Treskun

Штурман

Пост 09-Ноя-2015 13:52 (спустя 21 час)

[Q] 

А ЧЁ СО СКОРОСТЬЮ Раздавать будем или как?
[Профиль]  [ЛС] 

alexx2201

33

Пост 10-Ноя-2015 00:05 (спустя 10 часов)

[Q] 

спасибо обновляем !!! продолжения ждем.

_________________
Отпуск...внезапно
[Профиль]  [ЛС] 

Элез ®

Флибустьер

15330

Пост 15-Ноя-2015 21:49 (спустя 5 дней)

[Q] 

Добавлена серия 16!!!

_________________

[Профиль]  [ЛС] 

ник ример

Морской Волк

Пост 19-Ноя-2015 10:26 (спустя 3 дня)

[Q] 

Мне одному кажется на что на постере он ф а к показывает?
[Профиль]  [ЛС] 

Элез ®

Флибустьер

15330

Пост 21-Ноя-2015 16:15 (спустя 2 дня 5 часов)

[Q] 

Добавил заключительную 17 серию!!!

_________________

[Профиль]  [ЛС] 

Элез ®

Флибустьер

15330

Пост 22-Ноя-2015 19:54 (спустя 1 день 3 часа)

[Q] 

Запечатывайте

_________________

[Профиль]  [ЛС] 
Показать сообщения:    
Ответить на тему

Текущее время: Сегодня 02:05

Часовой пояс: GMT + 4



Вы не можете начинать темы
Вы не можете отвечать на сообщения
Вы не можете редактировать свои сообщения
Вы не можете удалять свои сообщения
Вы не можете голосовать в опросах
Вы не можете прикреплять файлы к сообщениям
Вы не можете скачивать файлы

▼ Вниз